&title=千紫万紅
&artist=r0y vs. WABI
&first=1.48
&des=Samurai Wolf
&lv_5=14
&inote_5=(203){8}2bq5[2:1]/7b,,,,,,8,7,6h[2:1],,,,4,4,3,2,7xh[2:1],,,,3h[2:1],,,,6h[2:1],,,,4h[2:1],,,,
{16}5,,,,4,5,4,5,4,5,4,5,4,5,4,5,E6,B6,B7,E8,B8,B1,E2,B2,B3,E4,B4,B5,E6,6x,7x,8x,1x,2x,3xh[4:1],,
{4},,,5w1[2:1],,,,
{8}3b/6b,4,5,6h[2:1],3x,3x,3x,2x,1/8,7,6,5/4h[2:1],6x,6x,6x,7x,7b/3b,6,5,5,3,3,4,4,5xh[8:1]/3xh[8:3],,Ch[4:1],,2>5[4:1],2,2b,,7x,,6/4,,2,,3/5,,8b,7/1,2/6,3/5,3xh[8:1],,3hx[8:1],,
{16}3,4,3,4,2,5,2,5,1,6,1,6,8,7,8,7,8qq5[2:1]*pp3[2:1],,
{8},,,,,,,6h[2:1]/2h[2:1],,,,,,
{16}4,5,6,7,8-4[4:1],,,,
{8}1,,2-6[4:1],,4,,5h[4:1],,,4/5,,6,7,8/1,2h[4:1],
{16},,,,2,
{8}5h[4:1],,4h[6:1],,
{16},
{6}3x/4x,3x/4x,4x/5x,,5x/6x<2-5[2:1],
{16},5x,6x,5h[2:1],,,,,,,,,
{6},
{16},,1/8,2/7,3x-5[4:1]/6x,,
{6}6,6,
{12},,6,7,8,1,2,3-5s1[2:1]/6-4z8[2:1],,,,,,,,E1f,,,
{24},
{8}7b,6,5,,5/7,,5/6,,5/4,3,6,4,3h[8:1],,72,72,8b-4[8:1]/1b,2,8/3h[8:1],,2h[8:1],,2h[8:1]/4h[8:1],,3bh[4:1],5x,5x,6bh[4:1],4x,4x,3-7[8:1],,3b/5,5,5,54,4,4,4,46,3b/7b,7,7,8,82,2,2,2,
{16}1b,8,2,7,3,6,4,5,
{24}4b,5,6,7,8,1,2,3,4,5,6,7,8xb-4<6-1b[2:1],,,,,,,,,,,,,,,,,,,,,,,,
{8}8xh[8:1],,71,71,2-6[8:1],3,2b/4<7[8:1],,4b,,8b-4[8:1],,8b/3-8[8:1],3,36,6,6<1[8:1],,6b/3-7[8:1],,3b/5s1[8:1],,3h[8:1],,2bh[4:1],8,8,7,6-8[8:1],,6b/2-6[8:1],,2b/4-6[8:1],,4b,,73,7,7,6,6>4[8:1],,6b/1<6[8:1]*>4[8:1],,1bw5[8:1],,1b,,
{8}6h[4:1],4,4,3,35,,7x/B3`A3,,1x/B5`A5,,6x/B2`A2,,7h[4:1],1,1,2,3,,5x/E2`B2`B3,,8x/E1`B8`B7,,6x/B6`C`B2,,1h[4:1],2,3,4,5h[4:1],,D2`E2`B1,,8x/E4`B4`B5`E6,,7x/E8`B8`B1`E2,,8bh[2:1],1,3,3,4,,4/A7`B7`C`B3`A3,,5/A2`B2`C`B6`A6,,
{16}5x,4x/6x,3x/7x,2x/8x,1xb<1[4:11]*>1[4:11],,,,
{1},,,
{16},,,,8bx,8bx,8bx,8bx,8bx,8bx,8bx,8bxw4[4:1],,,,,,,,,B4,B5,B6,B7,B8,B1,B2,B3,
{8}5xh[4:1],4,4,4h[4:1],5,5,6-2[8:1],,6b,,4bh[8:1],,7bh[8:1]/1bh[8:1],,3bh[8:1]/5bh[8:1],,6bh[2:1],3x,3x,3x,3x,3x/6b,3x/6b,3x/6b,
{8}3b-7>1-5p7b[2:1],3bh[4:1],,,,,1x,,6v4-1<7-3b[2:1],6bh[4:1],,,,,8x,,15,15,68,68,
{16}7,7,7,7,7-3b[8:1],7,7,7,E8`E7/E1`E6/E2`E5/E3`E4`Cf,,,,,,,,
{24}3,2,1,8,7,6,3,2,1,8,7,6,5<1[4:1],,,
{8},4,4,,
{16}3,2,1,8,7,6,5h[4:1],,,,8,,8,,,,74,,5,6,5,6,5x>2[8:1],,6,,7,,8<5[8:1],,1,,2,,3>8[8:1],,4,,5,,6,5,4,3,2,1,84,5,6,7,8x-4[8:1],,,,1b-3[8:1]/8b,,,,1b/7b-5[8:1],,,,7,,3,,3,,3,,6/2-4[8:1],,6,,7,,7,,8-4[8:1]/4,,4,,3,,3,,12,,12,,34,,34,,56,,56,,78,,78,,
{16}5,1b,2,3,6,2b,3,4,7,3b,4,5,8,3b,4,5,1b-5[8:1],,,,1b,,,,1b-4[8:1]/8b-3[8:1],,,,1b/8b,,,,6b/5b,,3b/4b,,5b/7b,,5bh[2:1],,6b,,,,7b,,,,8b<8[1:1],,,,,,,,,,,,,,,,
{1},
{8}1hx[1:1],,,,,,,,,,,,,,,,
{8}B6,B5,B4,B3,C,,,,B7,B6,B2,B3,B8/B1,,E7,E3,E6,,,B3,B4,,E5,,C,,,,,,,,2qq5[1:1],,,,,,,,B6,,B7,,E7,,,,6qq1[1:1],,,,,,,,2hh[4:1],,,,3h[4:1],,,,4b/5b,5,6,5,4h[4:1],,,,3,3,4,5,6h[4:1],,,5,7bhx[2:1],,,2,2,,1,,1xh[4:1],,8,8,,7,7/2>4[8:1],,52,,5,5,5/B2,5,5/B1,6,6,4,4,4,4/B7,4,4/B8,4,5x/4x,
{16}4,5,4,,5,4,6,,4,5,3,,6,5,7,,3,4,2,,6,5,8,,3,4,1bx,,,,7,1,7,1,7,1,7,1,8,8,8,8,8,8,8,8,8b-4b[8:1],,,,,,,,Chf[4:1],,,,,,,,
{16}1b/2b,,3,,45,,6,,78,,6,1,6,,78,,6/1-5[8:1],,2,,1/7<4[8:1],,6,,7/3,,,,28,,28,,7b/3b,,4,6,4,,73,,8b-4[8:1]/2b,,7,,8/1-5[8:1],,2,,1/7b,,7b,,7b/4b,,7b/4b,,6h[4:1],,5x,,5xb,,,,2bV48[4:1]/5,,34,,2,,6,,7-4-6[4:1],,7,8,7,,1,,2bh[8:1],,,,
{24}6,7,8,1,2,3,6,7,8,1,2,3,6,7,8,1,2,3,4b-2-8[8:1],,,
{16}4x,6x,4x,,7,,7,,6,,64,,5,,5b/3x,,7b/4x,,6b/1x,,8x/3b,,2b-5b[8:1]/7x-4[8:1],,,,2b/7b,,,,5h[8:1]/3,,3,,87,,87,,16,,5,2,5,,34,,5/2>5[8:1],,3,,2/6-1[8:1],,7,,6/4-8[8:1],,,,4,,,,7b/1b,,,,6x,6x,6x,,7b/5b,,6,4,6,,7,,6b/4,,4b/2b,,7b/5b,,1b/8b,,7bh[4:1]/2bh[4:1],,,,,
{32}E1,E8/B8/B1/E2,B7/B2,B6/B3,E6/E4,D6/A5/A4/D4,D5f,,,,,,,,
{8},,,,,,8<1b[3:1],,
{24}E8,E7,E6,E5,E4,E3,E2,E1,A8,A7,A6,A5,A4,A3,A2,A1,,,
{16}8b,,3,4,3,,6,5,6,,3,4,3,5,4,5,3b-7[8:1],,,,,,,,
{16}8,8,8,8,8,8,8,8,8b-4[8:1],,7,,6,,5-1[8:1],,4,,3,,2-6[8:1],,1,8,7,,,,7h[8:1],,,,28,,28,,37,,46,,5>2[8:1],,6,,7,,8<5[8:1],,1,,2,,3>8[8:1],,4,,5b,,5b,,6b/4b,,7-4[8:1]`3-8b[8:1],,,,,Cf/B6/B5/B1/B2,,,,,
{16}7xh[16:1]/8hx[16:1],,2hx[16:1]/3hx[16:1],,6xh[16:1]/5hx[16:1],,8xh[16:1]/2hx[16:1],,7xh[16:1]/1xh[16:1],,3xh[16:1]/4xh[16:1],,6xh[16:1]/2xh[16:1],,4xh[16:1]/5xh[16:1],,7hbx[16:1]/6bhx[16:1],,3xbh[16:1]/4hbx[16:1],,1bxh[16:1]/7hbx[16:1],,8xhb[16:1]/1xbh[16:1],,3xbh[16:1]/7bxh[16:1],,7xbh[16:1]/8bhx[16:1],,2hxb[16:1]/3bhx[16:1],,6xbh[16:1]/5hbx[16:1],,2,1,3,8,4,7,5,6,8,7,1,6,2,5,3,4,
{32}7b/8bh[8:1],6,5,4,3,,,,,,,,2b/1hb[8:1],3,4,5,6,,,,,,,,1x,8x,1x,8x,1x,8x,1x,8x,1xw5[1:2],,,,,,,,
{1},,
{8},,,,,,
{5}B6,B5,B4,B3,C,
{4},E1,,,,,8x-4[1:2],,,,,,,,,,
E
