&title=カオスロジック
&artist=いとうかなこ
&first=0
&des=blue sky
&lv_5=14
&inote_5=(163)
{1},,
{8}28,,,16,,,47,,,26,,,38,17,38,56,
26,,,57,,,15,,,34,,,28,34,47,{16}1,6,
{8}3b,2,2,35,2,2,36,2,2,37,{16}2,6,4,,{8}17,5,28,4,
37,8,8,27,8,8,17,8,8,27,{16}8,4,6,,3,3,5,2,5,,18,,
{8}6h[4:3],5,5,5,5,5,5,5,{16}5,6,5,6,5,6,5,6,5,6,4,7,5,6,3,8,
1b,7,3,7,3,7,1b,6,3,6,3,6,1b-6[8:1],4,3,4,1bV74[2:1]*V73[2:1],,,,,,,,,,,,,,,,
{8}2-4[8:1],,6,7-1[8:1],,2,2h[4:1],,4-6[8:1],,,1-3[8:1],,6,7h[4:1],,
4-2[8:1],,8,7-5[8:1],,2,1>4[4:1],,4<7[4:1],,,8h[8:3],,1,1,,
4h[4:1]/6,,8,7-4[4:1],,4-8[4:1],,2,,3,3h[4:1],,1,,48,,37,,36,,35,,34,,
1/2b,3/4b,5b/6,7b-4[8:1]/8-3[8:1],,,,,
2b-5[8:1],1,28,6,4>1[8:1],3,7-3[8:1],6,2-6[8:1]*-5[8:1],,,,8-5[8:1]*-3[8:1],1,,,
7-4[8:1],2,37,1,8-5[8:1],2,3-8[8:1]/8,,4-7[8:1],,1,2,3-8[8:1]/8-4[8:1],,38,,
2-4[8:1],1,28,6,5-8[8:1],4,25,1,4-1[8:1]/7,,4/5-8[8:1],,7-2[8:1]/5,,37,,
4-7[8:1]*-1[8:1],,,,3-8[8:1]/5-8[8:1],,,,12,3,4h[4:1]/8,,
{16}7b,,,3/5,,,1/8,,
{8}6h[8:1]/5,4,6h[8:1]/5,4,6h[8:1]/2,3,6h[8:1]/2,3,6h[8:1]/2-7[8:1],3,6h[8:1]/2,,
8b/6h[8:1],{16}1,1,7-4[8:1],,3,,2h[8:1]/7,,,,
{8}2h[8:1]/5,6,2h[8:1]/8,7,2h[8:1]/8<5[8:1],7,2/8-3[8:1],1,6/8-5[8:1],7,2/8>3[8:1],1,86,,
4h[8:1]/8-3[8:1],,8/4h[8:1],,6h[8:1]/4-8[8:1],,6h[8:1]/4,,1h[8:1]/7-3[8:1],,7pp4[2:1]/1h[8:1],,2h[8:1]/7,,3h[8:1],,
3h[8:1],5,7h[8:1]/4,2,1h[8:1]/8,7,6h[8:1]/2,3,
{16}2,4,2,4,1,,7,7,5,,6,6,1,,28,,
3h[2:1],,4,,4,,4<7[8:1],,,,,,1h[8:3],,8,,8,,8V26[4:1],,,,,,3,,3,,3,,3,,8h[2:1],,5,,5,,5-1[8:1],,,,,,6h[2:1],,8,,8,,8>4[16:3],,,,,,6b,7,8,1,5,4,3,2,
1h[8:1]/8,,7,,1h[8:1]/8,,7,,2h[8:1]/5,,6,,2h[8:1]/5,,6,,4h[8:1]/3,,2,,4h[8:1]/3,,2,2,
5,,7,,48,,2,1,2b-5[8:1],,5,,7,,8-4[8:1],4,7,,2-5[8:1]/8b,,,,2b/6,,,,8,,46,,3,,15,,2,4,2,,
3b/8b,,7,,4,,25,,3b/8b,,2,1,2,,3b/8b,,46,,25,,3b/8b,,1,,7,,3b/8b,,5b/7b,,2b/4b,,3bp3[8:5]/7bp7[8:5],,,,,,,,,
,,,,,,,,,
2b-6[8:1],,5,5,2,,7,,2/5-2[8:1],,7,,5/8,,6,,1b,,4,3b,,7,5b,,1-5[8:1]/6-1[8:1],,27,,16,,,,4-1[8:1],,6,6,4,,8,,7-4[8:1]/3,,5,,17,,3,,1b/2b,,5,7b,,3,4b,,
2-6[8:1],8,3,,27,7,,,
8h[4:1],,5-8[8:1],,3,,2h[4:1]/5,,,,1,,47,,5,,3-8[8:1],,4-7[8:1],,3,,4,,,,12,,4/7-4[8:1],,,,3-7[8:1]/7b,,2,,1-5[8:1],,2,,1b/6h[8:1],,,,8,,16,,
47,,3,4,2,,38,,2,1,2,1,2,1,2,1,
2b-5[8:1],,8,8,2,,6,,2/8-4[8:1],,6,,85,,
7,,3b,,8,1b,,6,4b,,2-6[8:1]/5-8[8:1],,14,,25,,,,
5-2[8:1],,8,8,5-8[8:1],,7,,5/1-5[8:1],,3,,14,,2,,
6b/4b,,1,8b,,2,4b,,7-4[8:1],4,8,,72,2,,,
1h[4:1],,4-8[8:1],,6,,4/7h[4:1],,,,1,,2-6[8:1]/5,,3,,27,,8-5[8:1]*-3[8:1],,,,8b,,,,
3,4,2h[8:1],,8,7,
4b/6h[8:1],,2,,1h[8:1]/8b,,7,,5h[8:1]/4b,,3,,8b/2h[8:1],,6,,
1b,5,1,5,1b,5,1,5,3b,5,3,5,3b,5,3,5,
{8}2b,1,1,25,1,1,26,1,1,27,{16}1,5,3,,17,,5,,28,,4,,
{8}73,8,8,72,8,8,71,8,8,72,{16}6,6,2,,8-4[8:1],1,6,,38,,,,
{8}2b/5,34,34,1/5b,34,34,1b/5,34,34,2/5b,34,34,2b/5,4/7,2b/3,1/6,4b/8b,,,
5b/6,,,5b/2,,,1b/8,1/8b,1b/8,1/8b,1b/8,1/8b,1b-5[54.3333#8:1]b/8,,,,,
