&title=LAST Re;SØRT
&artist=NOMA w/ Apo11o program
&first=-0.07
&des=star night
&des_6=
&lv_6=14+
&inote_6=(140){4},{8},,,,,,,,,1-5>7b[0.4286##5.9781]/5-1<3[0.4286##5.9781],
,,,,,,,,,,,,,(90),
,,,,,,,(180),
,,,,,,,,,,,,,,(100){1}6h[1:1],
5h[1:1],
4h[1:1],
{2}3h[1:1],B4,
{1}6V85-1[1:1],
1V38-4[1:1],
4V63-7[1:1],
{2}7-2[0.6##0.6],(40)1xh[#3],
(47){48},E1/E2,{24}B7/B3,{4},{16},,{24},(170){16}6,5,,3,{8}4-8[8:1],5/3,
4bx,2h[16:1],7,7/1,3h[16:1],4,5/2,6h[16:1],
1,2,8z4[16:3],7/1,{4}8,{48}E3,B2,{24}B1,{48},,E7,B6,{12}B5,
{8}1bx,{16}7,8,{8}7,6/1,{16}2,5,{8}2,3/6,{16}5,4,
{8}5,6/4,{16}5,7,{8}5,{48}7x,E7,{24}B6,{48},,{16}3,4,3,4,{8}3,
5b,{16}5,4,{8}5,{16}5,3,{8}5,{16}5,2,{8}5,5h[16:1],
3bx,{16}3,4,{8}3,{16}3,5,{8}3,{16}3,6,{8}3,{16}3,7,
3,8,3,8,2,1,2,1,{32}2,3x,4x,5x,8,7,6,5,E2,E3,E4,E5,E1,E8,E7,E6,
{1}Ch[1:1],
{4}8b,{8}7-1v4[8:3],7,2,2,3,3,
5x/3bh,5,6,6,{16}5,7,5,7,4,8,4,8,
{8}3h[16:1],3h[16:1],2-8v5[8:3],2h[16:1],7h[16:1],7h[16:1],6h[16:1],6h[16:1],
6bh/4xh[16:1],4h[16:1],3h[16:1],3h[16:1],{16}4,2,4,2,5,1,5,1,
{8}6,6,7-5v8[8:3],7,1h[16:1],1h[16:1],2h[16:1],2h[16:1],
3bh/7h[16:1],7h[16:1],6h[16:1]/5-3v8[8:3],6h[16:1],7h[16:1],7h[16:1],6h[16:1],6h[16:1],
3,3,2-4v1[8:3],2,8h[16:1],8h[16:1],7h[16:1],7h[16:1],
{16}6,5,4,3,{4}2h[8:1],{12}3,4,5,6,7,8,
{4}6/1bq5[8:1],1/7<4[8:1],{16}7/2,,,3,{8}5,6/2,
{4}1/7<4[8:1],7/1q5[0.3494##0.201],(158){6}1/8,{12}7,4-8[0.376##0.1504],{6}6,
(176)4b/3,{12}1,7,{24},{8}2/6,{16}3h[8:1]/5h[8:1],,,4h[8:1]/6h[8:1],,,{8}7/3,
{12}2bh[12:1],8x,1h[12:1],8x>3[8:1],1h[12:1],7,{32}8b,6x,{16}5x,,4bxh[16:1],,2,{8}1,
(170){4}3/8bp4[8:1],8/2>5[8:1],{16}2/7,,,6,{8}4,3/7,
{6}8/2>5[8:1],{12}1,2,{6}8,{48}6b/4,,,6/4b-8[8:1],,,,,,{16}3,,4x,{8}2x,
(171){6}1b-3[0.3509##0.1699],{12}8,(173)1,{6}7,(175)4/6b-4[0.3429##0.1661],{12}3,(177)6,{6}2,
(179)5/1b-7[0.3352##0.1624],{12}6,(181)1,{6}6,(183)8/5b-7[0.3279##0.1589],{12}1,(185)5,{6}2,
(187)8/3b-1[0.3209##0.1556],{12}7,(189)3,{6}6,(191){12}2b,7,1,(193)8-3[0.3109##0.1508],{6}1,
(195)8b/7,{12}5,(197)5-1[0.3046##0.1477],{6}2,(199)5b/3,{12}4,(201)4,8,8,
(203){6}7bh[12:1]/5h[12:1],{12}6h[400:33]/4h[400:33],(205),{6}5h[12:1]/3h[12:1],(207)1bh[12:1]/4h[12:1],{12}3h[400:33]/5h[400:33],(209),{6}4h[12:1]/6h[12:1],
(211){12}5x/7x,5x/7x,5x/7x,(213){24}4b,3,2,1/8,7,6,(215){2}Cf/5b-1>1b[2:7],
{4},,,,,,,,,,,,,,B4,
E8,
E7,E6,E5,E1,
E8,E7,E6,E2,
E1,E8,E7,E3,
E2,E1,4bh[1:4]/E8,8,
7,6,5,1,
8,7,6,2,
1,8,7,3,
2,1,8h[#4.465118],4,
3,2,1,5,
4,3,2,6,
5,4,3,7,
6,5,(82){48}4,3,{24}2z6[0.7244##2.6124],{4},,,{16},,{24},(47){48}B2,
C,{24}B6,,,,,(70){4},
(165){24}7,6,5,4,3,2,7,6,5,4,3,2,(195){8}1b/7b,6,5,4/2,
3/5-1[8:1],4,{4}5/7,{8}8,7,6/1-3[8:1],2/5-7[8:1],
1/4,5,2b,3,4,5/7,6/4-8[8:1],5,
{4}4/2,{8}1,2,3/8-6[8:1],7/4-2[8:1],8/5,4,
5b,{16}5,4,{8}5,{16}5,3,{8}5,{16}5,2,{8}5,5h[16:1],
3bx,{16}3,4,{8}3,{16}3,5,{8}3,{16}3,6,{8}3,{16}3,7,
3,8,3,8,2,1,2,1,{32}2,3,4,5,8,7,6,5,1,2,3,4,7,6,5,4,
{1}Ch[1:1],
{32}B8,B7,{16}E7,{32},,,,B4,B3,{16}E3,,,8b,2,8,2,{8}8h[8:1],{16}1,7,
2b,6,2,6,2,6,2,6,3,5,3,5,3,5,3x,2x,
7b,8,7,8,7,8,7,8,6,1,6,1,6x,5x,2x,3x,
7b,4,7,4,7,4,7,4,6,5,6,5,6,5,6x,7x,
3b,8,3,8,3,8,2,1,2,1,3,8,4,7,3,8,
2b,1,2,1,2,1,2,1,3,7,3,7,3,7,3x,4x,
8b,5,8,5,8,5,8,5,6,4,6,4,6x,7x,4x,3x,
8b,2,8,2,8,2,8,2,8,2,8,2,8,2,7x,6x,
4b,5,4,5,4,5,2,6,2,6,1,8,{48}E2,B2,{24}B3,{48},,E8,B7,{12}B6,
{16}2b,4,2,4,2,4,2,4,3b,5,3,5,3,5,3x,2x,
7b,1,7,1,7,1,7,1,5,3,5,3,5x,6x,3x,2x,
7b,1,7,1,7,1,7,1,7,1,7,1,7,1,7x,6x,
2b,5,2,5,2,5,1,4,1,4,2,5,1,6,2,5,
3b,6,3,6,3,6,3,6,3-8[8:1],6,3,6,{4}3,
{16},,7,8,7,8,7,8,7,8,6,1,5,3,6,1,
8b,2,8,2,8,2,6,3,6,3,6,3,6x,7x,3x,4x,
8b,5,8,5,1,5,8,4,7-4[8:1],3,6,3,{4}7,
{16}3,4,2,6,5,7,3,4,2-5[8:1],6,5,7,{4}2,
{16}6,5,7,3,4,2,6,5,7-4[8:1],3,4,2,{4}7,
{16}3b,4,3,4,3,4,2b,4,3,4,3,4,1b,4,3,4,
2b,4,3,7b,5,6,2b,8,2,8,{24}2,3,4,5,6,7,8/4x,1/5,2/6,
{1}3>5-1b[4:13]/7<1-5[4:13],
,,,{16}1w5[8:1],
1x,1x,1x,{4}Cf,,,8w4[8:1],
Cf,,,7/1>4[8:1],
{12}1b,6,6,,3/5,3,6h[12:1],4,5h[12:1],
4-8[8:1],3/5,,4/2,,1h[12:1],,7/2,2,8b,8,3h[12:1],
7,4h[12:1],6,5/4,,3/7,,2h[12:1]/1h[12:1],,6h[12:1]/4h[12:1],,7h[12:1]/1h[12:1],
,2/6,6/2-8[0.4997##0.1971],(140)5b/3b,,2b/7,,6,5,4/3,2,7/1,
{24}8w4[0.4286##0.1077],8,8,8,8,8,(195){4}Cf,,,1w5[8:1],
Cf,,,2/8b<5[0.3077##0.18],
(180){12}8,3,3,6h[12:1],4,4,5h[12:1],{24}2,4,{12}2,
5-1[8:1],4,6,{48}5,,,7b,,,,,{12}8h[12:1],,1/7,7,{24}2,6,2,6,2,6,
{12}2,5h[12:1],3,4/5,,6/2,,7h[12:1]/8h[12:1],,3h[12:1]/5h[12:1],,2h[12:1]/8h[12:1],
,7/3,3/7,(200){48}4,,,6,,,{16}4,5,3,6,2,7,{32}1,2,3,4,1,2,3,4,
8,7,6,5,8,7,6,5,(260){8}8b,7x,6x,5x,4x,3x,
2x,1x,8,7,6,5,4,3,
2,1,(308)8b,7,6,5,4,3,
2,1,8,7,6,5,4,3,
2,1,(360)8b,7,6,5,4,3,
2,1,8,7,6,5,4,3,
2,1,(400)8b,7,6,5,4,3,
2,1,(420)8b,7,6,5,4,3,
2,1,(438)8b,7,6,5,4,3,
2,1,(454)8b,7,6,5,4,3,
2,1,(470)8b,7,6,5,4,3,
2,1,(484)8b,7,6,5,4,3,
2,1,(496)8b,7,6,5,4,3,
2,1,(510)8b,7,6,5,4,3,
2,1,8,7,6,5,4,3,
2,1,8,7,6,5,4,3,
2,1,{4}Cfh[4:1],{1},,,,,,,{4},,,(140),
E
