&title=愛して愛して愛して
&artist=初音ミク、朝比奈まふゆ、東雲絵名
&first=0
&des=luvlily
&lv_5=13
&inote_5=(115){1},
{12}8,7,,
{16},,
{12}7,6,,
{16},,
{12}2,3,,
{16},,
{12}8,1,,
{16},,
{12}6,5,,
{16},,
{12}5,4,,
{24},,4,
{16}45,,56,,67,,78,,1>3[2:1]*<5[1:2]/8,,,,
{16}1,,,,,,,,,,,,2h[4:1],,,,
{16},,3h[4:1],,,,,,3h[4:1],,,,,,4h[4:1],,
{16},,,,3h[4:1]/5h[4:1],,,,,,3h[4:1]/5h[4:1],,,,,,
{16}4V68[4:1]/6,,,,,,7h[8:1],,,,,,6V42[4:1],,,,
{16}2,,1h[8:1],,,,8,,
{24}8,1,2,3,4,5,6,7,
{24}8,16,5,4,3,2,1,8,7,6,52,3,4,5,6,7,
{24}8,1,2,3,
{32}4/7b,6,5,4,3,2,1,8,
{24}7,,
{24}3,4,3,4,3,4,3,4,3,4,3,5,3,5,3,5,3,5,3,6,3,7,3,8,
{24}3,8,3,8,,,2q7[4:5],,,3,,,4,,,,,,,,,,,,
{16},,,,,,,,,,,,,,,,
{16}8V63[8:3]*V61[8:3],,,,,,,,,,,,2bV47[4:1]/8bV63[4:1],,,,
{16},,,,,,,,4-6[4:1]/6-8[4:1],,,,,,,,
{16},,,,3qq1[4:1]/1V75[4:1],,,,,,,,,,,,
{16}2,,3-6[8:1],,4,,5,,7,,8,,1,,2-7[8:1],,
{16}1,,8,,,,,,2,,5,,7,,1,,
{16}4,,7,,5h[128:1],,6h[128:1],,7h[128:1],,7h[128:1],,8h[128:1],,1h[128:1],,
{128}2,1,,,,,,,,,,,,,,,
{128}1,8,,,,,,,,,,,,,,,
{128}8,7,,,,,,,,,,,,,,,
{128}2,1,,,,,,,,,,,,,,,
{128}1,8,,,,,,,,,,,,,,,
{128}8,7,,,,,,,,,,,,,,,
{128}1b,8h[128:45],,,,,,,,,,,,,,,,,,,,,,,,,,,,,,,
{16},
{64},,,2b,
{16}3b/7b,,,,,,45,,6-3[8:1]/7-2[8:1],,18,,67,,
{16},,,,81,,2<7[8:1]/3<6[8:1],,54,,23,,,,,,
{24}6,5,6,5,6,5,6,5,6,4,6,3,6,3,6,3,6,3,7,2,8,1,8,1,
{24}7,2,6,
{16}3,,,,,,6h[128:1],,3h[128:1],,8h[128:1],,
{128}6,5,,,,,,,,,,,,,,,
{128}2,3,,,,,,,,,,,,,,,
{128}7,8,,,,,,,,,,,,,,,
{128}1b,5h[128:93],,,,,,,,,,,,,,,
{16},,,,,,,,1h[64:7],,
{16}8b/6b,,,,1h[64:7]/5h[64:7],,
{16}2b/4b,,,,1,,3,,5pp6[4:1]*qq3[4:1],,
{16}7,,5,,,,,,3h[128:1],,1h[128:1],,7h[128:1],,
{128}2,3,,,,,,,,,,,,,,,
{128}1,8,,,,,,,,,,,,,,,
{128}6,5,,,,,,,,,,,,,,,
{128}2b,1h[128:93],,,,,,,,,,,,,,,
{16},,,,,,,,5h[64:7],,
{16}4b/8b,,,,3h[64:7]/7h[64:7],,
{16}2b/6b,,,,5h[64:7]/1h[64:7],,
{16}4b/8b,,,,4h[64:7]/8h[64:7],,
{16}1b/5b,,,,2h[64:7]/6h[64:7],,
{16}1b/7b,,,,3h[64:7]/7h[64:7],,
{16}2b/8b,,,,5h[64:7]/1h[64:7],,
{16}2h[2:1]/6h[2:1],,,,,,
{16},,,,,,
{24}
{24}5/7h[8:1],4,3,2,1,8,7/3h[4:1],6,5,4h[8:1],,,,,,,,,
1/3h[8:1],8,7,6,5,4,3/7h[4:1],2,1,8h[8:1],,,,,,,,,
4/2h[8:1],5,6,7,8,1,2/6h[4:1],3,4,5h[8:1],,,,,,,,,
{16}8-4[8:1],,,,8,,8-4[8:1],,,,8,,
{24}6,7,8,1,2,3,48,51,62,7h[8:1]/3h[8:1],,,,,,,,,
8/6h[8:1],1,2,3,4,5,6/2h[4:1],7,8,1h[8:1],,,,,,,,,
{16}2-5[8:1],,,,2,,4-7[8:1],,,,4,,6-1[8:1],,,,
{16}6,,8-3[8:1],,,,,,
4,,5>3[8:1]*-8[8:1],,6,,5,,,,,,
{16}3,,2-7[8:1]*pp4[8:1],,1,,2,,,,,,
{16}7<5[8:1],,7,,1-3[8:1],,1,,,,,,
56,,45,,34,,32,,54,,76,,
{24}1,2,3,4,5,6,7,8,
{24}1,25,4,3,2,1,8,7,6,5,41,2,3,4,5,6,
{24}7,8,1,26,5,4,3,2,1,8,7,6,
{24}1,7,3,8,2,6,5,7,3,4,2,6,
{24}1,7,3,8,2,6,5,7,3,4,2,6,
{32}1,7,3,8,2,6,5,7,
{32}3,4,1,6,5,8,3,5,
{48}1b,2,3$,4h[128:1],5$b,6,7$,8h[128:1],
{48}1b,2,3$,4h[128:1],5$b,6,7$,8h[128:1],
{48}1b,2h[128:1],3$,4,5$b,6h[128:1],7$,8,
{48}1b,2h[128:1],3$,4,5$b,6h[128:1],7$,8,
{48}1b,2$,3b,4$,5h[128:1],6$b,7,8,
{48}1b,2$b,3,4h[128:1],5,6$,7b,8h[128:1],
{48}1b,2$,3b,4$,5,6$b,7,8h[128:1],
{48}1b,2$b,3,4$,5h[128:1],6$,7b,8$,
{48}1b,,3$b,4b,5h[128:1],6$,7,8$,
{48}1$,2$,3h[128:1],4$b,5,,7$,8b,
{48}1b,2$,3,,5b,6,7$b,8h[128:1],
{48}1$,2,,4$,5$b,6h[128:1],7$,8$,
{48}1$b,2h[128:1],3$,4$,,6,7b,8$b,
{48}1,2$b,3$,4b,5b,6$,7h[128:1],8$,
{48},2,3$b,4h[128:1],5$,6b,7$b,8$,
{48}1b,2b,3b,4b,5$b,6$b,7$b,8$b,
{48}1$b,2$b,3$b,4$b,
{16}5bqq5[2:5]*pp5[2:5],,
{16},,,,,,,,,,,,,,,,
{16},,,,,,,,,,,,,,,,
{16},,,,,,,,,,,,,,,,,,
{32}3,7,2,8,1h[48:11],,,,,,,,
{48}2b/8b,3b/7b,4b/6b,5b,,,
{24},,,,,,
{32}6,2,7,1,8h[48:11],,,,,,,,
{48}7b/1b,6b/2b,5b/3b,4b,,,
{24},,,,,,
{32}1,6,2,7h[96:25],3h[48:11],,,,,,,,
{48}6b/2b,5b/1b,4b/8b,,,,
{24},,,,,,
{32}6,2,7,1,8-4[16:1]*-4[16:1],,,,,,,,4b,,,,
{24}2,1,8,7,6,5,
{24}84,7,6,5,4,3,2,1,8,73,4,5,6,7,8,1,2,3,48,7,6,5,4,3,
{24}2,1,8,7,26,3,4,5,6,7,8,1,
{24}8,2,6,1,7,3,4,2,6,5,7,3,
{24}8,2,6,1,7,3,4,2,6,5,7,3,
{32}8,2,6,1,7,3,4,2,
{32}6,5,7,3,8,2,6,1,
{32}8b,1,8,1,8,1,8,1,8,1,8,1,8,1,8,1,
{32}8,1,8,1,8,1,8,1,8,1,8,1,8,1,8,1,
{32}8,1,8,1,8,1,8,1,8,1,8,1,8,1,8,1,
{16}8qq4[1:1]*pp4[1:1]*pp1[16:9]*pp2[16:7]*qq6[16:7]*qq7[16:9],,,,,,,,,,,,,,,,
{16},,,,,,,,24,,3/5>2[16:1]*>2[16:1],,4/6<1[8:1],,5b,,
{16},,,,17,,2<7[16:1]*<7[16:1]/8,,3<6[8:1]/1,,2b,,,,,,
{32}26,,,,15,,,,48,,,,
{24}3<7[8:1]/7h[32:7],,,
{32},,,,8,1,2,3,4<8[8:1],,,,,,,,
{32}1,2,3,4,5<1[8:1],,,,,,,,2,3,4,5,6w2[12:1],,,,,,,,,,,,,,,,,,,,,,,,,,,,,,,,E
&inote_7=(115){1},
{12}8,7,,
{16},,
{12}7,6,,
{16},,
{12}2,3,,
{16},,
{12}8,1,,
{16},,
{12}6,5,,
{16},,
{12}5,4,,
{24},,4,
{16}45,,56,,67,,78,,1>3[2:1]*<5[1:2]/8,,,,
{16}1,,,,,,,,,,,,2h[4:1],,,,
{16},,3h[4:1],,,,,,3h[4:1],,,,,,4h[4:1],,
{16},,,,3h[4:1]/5h[4:1],,,,,,3h[4:1]/5h[4:1],,,,,,
{16}4V68[4:1]/6,,,,,,7h[8:1],,,,,,6V42[4:1],,,,
{16}2,,1h[8:1],,,,8,,
{24}8,1,2,3,4,5,6,7,
{24}8,16,5,4,3,2,1,8,7,6,52,3,4,5,6,7,
{24}8,1,2,3,
{32}4/7b,6,5,4,3,2,1,8,
{24}7,,
{24}3,4,3,4,3,4,3,4,3,4,3,5,3,5,3,5,3,5,3,6,3,7,3,8,
{24}3,8,3,8,,,2q7[4:5],,,3,,,4,,,,,,,,,,,,
{16},,,,,,,,,,,,,,,,
{16}8V63[8:3]*V61[8:3],,,,,,,,,,,,2bV47[4:1]/8bV63[4:1],,,,
{16},,,,,,,,4-6[4:1]/6-8[4:1],,,,,,,,
{16},,,,3qq1[4:1]/1V75[4:1],,,,,,,,,,,,
{16}2,,3-6[8:1],,4,,5,,7,,8,,1,,2-7[8:1],,
{16}1,,8,,,,,,2,,5,,7,,1,,
{16}4,,7,,5h[128:1],,6h[128:1],,7h[128:1],,7h[128:1],,8h[128:1],,1h[128:1],,
{128}2,1,,,,,,,,,,,,,,,
{128}1,8,,,,,,,,,,,,,,,
{128}8,7,,,,,,,,,,,,,,,
{128}2,1,,,,,,,,,,,,,,,
{128}1,8,,,,,,,,,,,,,,,
{128}8,7,,,,,,,,,,,,,,,
{128}1b,8h[128:45],,,,,,,,,,,,,,,,,,,,,,,,,,,,,,,
{16},
{64},,,2b,
{16}3b/7b,,,,,,45,,6-3[8:1]/7-2[8:1],,18,,67,,
{16},,,,81,,2<7[8:1]/3<6[8:1],,54,,23,,,,,,
{24}6,5,6,5,6,5,6,5,6,4,6,3,6,3,6,3,6,3,7,2,8,1,8,1,
{24}7,2,6,
{16}3,,,,,,6h[128:1],,3h[128:1],,8h[128:1],,
{128}6,5,,,,,,,,,,,,,,,
{128}2,3,,,,,,,,,,,,,,,
{128}7,8,,,,,,,,,,,,,,,
{128}1b,5h[128:93],,,,,,,,,,,,,,,
{16},,,,,,,,1h[64:7],,
{16}8b/6b,,,,1h[64:7]/5h[64:7],,
{16}2b/4b,,,,1,,3,,5pp6[4:1]*qq3[4:1],,
{16}7,,5,,,,,,3h[128:1],,1h[128:1],,7h[128:1],,
{128}2,3,,,,,,,,,,,,,,,
{128}1,8,,,,,,,,,,,,,,,
{128}6,5,,,,,,,,,,,,,,,
{128}2b,1h[128:93],,,,,,,,,,,,,,,
{16},,,,,,,,5h[64:7],,
{16}4b/8b,,,,3h[64:7]/7h[64:7],,
{16}2b/6b,,,,5h[64:7]/1h[64:7],,
{16}4b/8b,,,,4h[64:7]/8h[64:7],,
{16}1b/5b,,,,2h[64:7]/6h[64:7],,
{16}1b/7b,,,,3h[64:7]/7h[64:7],,
{16}2b/8b,,,,5h[64:7]/1h[64:7],,
{16}2h[2:1]/6h[2:1],,,,,,
{16},,,,,,
{24}
{24}5/7h[8:1],4,3,2,1,8,7/3h[4:1],6,5,4h[8:1],,,,,,,,,
1/3h[8:1],8,7,6,5,4,3/7h[4:1],2,1,8h[8:1],,,,,,,,,
4/2h[8:1],5,6,7,8,1,2/6h[4:1],3,4,5h[8:1],,,,,,,,,
{16}8-4[8:1],,,,8,,8-4[8:1],,,,8,,
{24}6,7,8,1,2,3,48,51,62,7h[8:1]/3h[8:1],,,,,,,,,
8/6h[8:1],1,2,3,4,5,6/2h[4:1],7,8,1h[8:1],,,,,,,,,
{16}2-5[8:1],,,,2,,4-7[8:1],,,,4,,6-1[8:1],,,,
{16}6,,8-3[8:1],,,,,,
4,,5>3[8:1]*-8[8:1],,6,,5,,,,,,
{16}3,,2-7[8:1]*pp4[8:1],,1,,2,,,,,,
{16}7<5[8:1],,7,,1-3[8:1],,1,,,,,,
56,,45,,34,,32,,54,,76,,
{24}1,2,3,4,5,6,7,8,
{24}1,25,4,3,2,1,8,7,6,5,41,2,3,4,5,6,
{24}7,8,1,26,5,4,3,2,1,8,7,6,
{24}1,7,3,8,2,6,5,7,3,4,2,6,
{24}1,7,3,8,2,6,5,7,3,4,2,6,
{32}1,7,3,8,2,6,5,7,
{32}3,4,1,6,5,8,3,5,
{64}1b,2b,3b,4b,5b,6b,7b,8b,
{64}1b,2b,3b,4b,5b,6b,7b,8b,
{64}1b,2b,3b,4b,5b,6b,7b,8b,
{64}1b,2b,3b,4b,5b,6b,7b,8b,
{64}1b,2b,3b,4b,5b,6b,7b,8b,
{64}1b,2b,3b,4b,5b,6b,7b,8b,
{64}1b,2b,3b,4b,5b,6b,7b,8b,
{64}1b,2b,3b,4b,5b,6b,7b,8b,
{64}1b,2b,3b,4b,5b,6b,7b,8b,
{64}1b,2b,3b,4b,5b,6b,7b,8b,
{64}1b,2b,3b,4b,5b,6b,7b,8b,
{64}1b,2b,3b,4b,5b,6b,7b,8b,
{64}1b,2b,3b,4b,5b,6b,7b,8b,
{64}1b,2b,3b,4b,5b,6b,7b,8b,
{64}1b,2b,3b,4b,5b,6b,7b,8b,
{64}1b,2b,3b,4b,5b,6b,7b,8b,
{64}1b,2b,3b,4b,5b,6b,7b,8b,
{64}1b,2b,3b,4b,5b,6b,7b,8b,
{64}1b,2b,3b,4b,5b,6b,7b,8b,
{64}1b,2b,3b,4b,5b,6b,7b,8b,
{64}1b,2b,3b,4b,5b,6b,7b,8b,
{64}1b,2b,3b,4b,5b,6b,7b,8b,
{16}5!bqq5[2:5]*pp5[2:5]/1!bqq1[2:5]*pp1[2:5]/1b,,
{16},,,,,,,,,,,,,,,,
{16},,,,,,,,,,,,,,,,
{16},,,,,,,,,,,,,,,,,,
{32}3,7,2,8,1h[48:11],,,,,,,,
{48}2b/8b,3b/7b,4b/6b,5b,,,
{24},,,,,,
{32}6,2,7,1,8h[48:11],,,,,,,,
{48}7b/1b,6b/2b,5b/3b,4b,,,
{24},,,,,,
{32}1,6,2,7h[96:25],3h[48:11],,,,,,,,
{48}6b/2b,5b/1b,4b/8b,,,,
{24},,,,,,
{32}6,2,7,1,8-4[16:1]*-4[16:1],,,,,,,,4b,,,,
{24}2,1,8,7,6,5,
{24}84,7,6,5,4,3,2,1,8,73,4,5,6,7,8,1,2,3,48,7,6,5,4,3,
{24}2,1,8,7,26,3,4,5,6,7,8,1,
{24}8,2,6,1,7,3,4,2,6,5,7,3,
{24}8,2,6,1,7,3,4,2,6,5,7,3,
{32}8,2,6,1,7,3,7,3,
{32}5,4,5,4,7,2,7,2,
{32}8b,1,8,1,8,1,8,1,8,1,8,1,8,1,8,1,
{32}8,1,8,1,8,1,8,1,8,1,8,1,8,1,8,1,
{32}8,1,8,1,8,1,8,1,8,1,8,1,8,1,8,1,
{16}8qq4[1:1]*pp4[1:1]*pp1[16:9]*pp2[16:7]*qq6[16:7]*qq7[16:9],,,,,,,,,,,,,,,,
{16},,,,,,,,24,,3/5>2[16:1]*>2[16:1],,4/6<1[8:1],,5b,,
{16},,,,17,,2<7[16:1]*<7[16:1]/8,,3<6[8:1]/1,,2b,,,,,,
{32}26,,,,15,,,,48,,,,
{24}3<7[8:1]/7h[32:7],,,
{32},,,,8,1,2,3,4<8[8:1],,,,,,,,
{32}1,2,3,4,5<1[8:1],,,,,,,,2,3,4,5,6w2[12:1],,,,,,,,,,,,,,,,,,,,,,,,,,,,,,,,E
