&title=散り散り
&artist=読谷あかね; 重音テト
&first=0
&des=No.743902
&lv_5=13+
&inote_5=(92)
{2},
(184)
{16}1-5[8:1],,8,,1,,,,2,1,8-4[8:1],7,6,,8,,7h[2:1],,,,,,,,4h[2:1],,,,,,,,
2h[2:1],,,,,,,,5h[2:1],,,,,,,,7h[2:1],,,,,,,,1h[2:1],,,,,,,,
3h[2:1],,,,,,,,5h[2:1],,,,,,,,8h[8:3],,,,,,3h[8:3],,,,,,,,7,5,
6h[8:3],,,,,,4h[8:3],,,,,,1h[8:2],,,,3h[8:3],,,,,,5h[8:3],,,,,,8h[16:7],,,,
,,,1h[16:3],,,2h[16:3],,,8h[16:3],,,3h[8:1],,7h[8:1],,4h[2:1],,,,,,,,5h[16:4],,,,,,,,
8h[16:4]/1pp5[4:3],,,,,,,,7h[16:4],,,,,,,,6h[16:4],,,,,,,,1h[16:4]/8qq4[4:3],,,,,,,,
2h[16:4],,,,,,,,3h[4:1],,,,,,,,7h[4:3],,,,,,5h[8:3],,,,,,,,6,5,
4h[8:3],,,,,,5h[8:3],,,,,,1pp5[4:3],,,,8h[16:4],,,,,,7h[16:4],,,,,,6h[4:1],,,,
,,2v5[4:1],,,,,,,,,,
{16}6,,5,,46,,,,35,,,,8,,17,,26,,,,
2,,,,35,,2,,,,3,,46,,,,1,,,,1,,2/8<5[8:1],,,,8,,2>5[8:1],,,,
2,,8-4[8:1],,,,8,,,,1-5[8:1],,5-2[8:1],,1,,
{16}7,,,,6,,45,,,,37,,4,,35,,
6-3[8:1],,,,1-4[8:1]/6,,,,17,,,,8-4[8:1],,3,,8-2[8:1],,2-6[8:1],,8,,3,,,,2,,3-1[8:1],,,,
3,,7-5[8:1],,,,7,,,,1-5[8:1],,5-3[8:1],,1,,7,,,,1,,,,28,,3,,14,,,,
36,,,,7,,56,,,,3,,4,,53,,2,,,,1,,24,,,,35,,6h[8:3],,,,
5,,5,,6,,4h[8:3]/7,,,,5,,5,,4,,25,,,,3,,,,47,,5,,46,,4-1[8:1],,
,,4-7[8:1],,,,4,,,,1-5[8:1],,6,,1-7[8:1],,7-3[8:1],,8,,,,6,,,,1,,28,,,,
3-6[8:1]/5,,4,,23,,,,2,6,3,5,4,,5,,46,,7,5,6,,35,,2,4,3,,45,,7,,
6,5,6,,45,,6,,3,4,3,,5,4,5,,2h[4:1]/7h[4:1],,,,,,3h[4:1]/6h[4:1],,,,,,46,,25,,
,,1h[8:1]/4h[8:1],,,,4h[8:1]/7h[8:1],,,,28,,3,,64,,
{16}3,5,3,5,2,4,2,8,2,1,3,1,2,8,2,8,
1b/7,,17,,3,4,2,4,3,5,2,7,1,8,3,,2h[4:1]/7h[4:1],,,,,,1h[4:1]/8h[4:1],,,,,,2-5[8:1],,7-4[8:1],,
2,,7,,,,18,,36,,,,27,,27,,6b,5,6,5,7,4,7,4,1,2,1,2,8,3,8,3,
2/7b,,3,4,3,1,8,2,8,1,6,5,8,1,7,1,8,,2,8,2,,7,1,7b/8,,1,,1b/2,,8,,
7,,3,5,3,,6,4,6,,4/5b,,3,,4b/5,,
5,6,5,6,5,7,5,8,1,8,1,8,2,8,3,8,3,5,4,6,5,7,4,8,2,6,3,8,1,6,8,3,
4,,5,3,4h[8:3],,3h[8:2],,,,,,12,,7,,
6,,4,6,5h[8:3],,6h[8:2],,,,,,34,,12,,
,,2h[8:1]/5h[8:1],,,,4h[8:1]/7h[8:1],,,,3,,8,,5,,
7-5[8:1],,6,,3-1[8:1]/7,,2,,7-1[8:1]/3,,6,,3-5[8:1]/7,,2,,7-5[8:1]/3,,6,,3-1[8:1]/7,,2,,37,,8,,2,,5,,
{6}1h[8:1],2h[8:1]/8h[8:1],3h[8:1]/7h[8:1],8h[8:1],1h[8:1]/7h[8:1],2h[8:1]/6h[8:1],
{16}3h[4:1]/5h[4:1],,,,,,,,,,18,,1-3[8:1],,,,
1-5[8:1]/6,,,,1/7,,,,12,,2h[8:1],,,,15,,,,86,,15,,24,,,,8-4[8:1],,4-8[8:1],,8V26[4:1],,
,,
,,
,,,,8>3[8:1],,7-4[8:1],,8,,7,,,,8-5[8:1],,3,,8,,,,6,,27,,3,,
4h[16:5]/8h[16:5],,,,,,3,2,1h[16:5]/5h[16:5],,,,,,6,7,8,,3,,4/7-4[8:1],,8,,3-8[8:1]/7,,2,,3/7,,6h[4:1],,
,,2h[8:1],,,,1-5[8:1]/7,,8,,1/7-3[8:1],,8,,1>3[8:1]/7,,,,16,,,,7<5[8:1],,4,,7,,1-7[12:1],,4,,
1b-5[8:1],,,,1b,,,,6,,6h[4:1],,,,4h[8:1],,,,3/7-3[8:1],,28,,37,,,,2-4[8:1],,6-8[8:1],,2-6[8:1],,
6-2[8:1],,2,,1,,,,8-4[8:1],,4-8[8:1],,8,,,,,,2-6[8:1]/6,,17,,26,,,,7,,2,,7h[8:3],,
3h[16:4],,,,,,2,1,8h[4:1]/5h[4:1],,,,,,6h[4:2],,7,,8,,1,,2,,3h[4:2],,4,,5,,6-8[8:1],,
,,6,,,,7h[4:1],,5,,4h[4:1],,6,,8h[4:2],,,,2,,3,,2h[4:1],,5,,6h[8:3],,5,,4,,
3,,1,7,3,4,2,,6b,5,6h[8:1],,3b,4,3h[8:1],,5,,4,6,3,7,2,,4b,2,4h[8:1],,5b,7,5h[8:1],,
1,,2,8,5,6,3h[8:1],,7,4,5,2,1h[8:1],,,,
3b,,5,3,1,5,2h[8:1],,4b,6,8,4,1b,,,,2>5[8:1],,,,2,,8<5[8:1],,,,8,,2,,3,,4>1[8:1],,,,4,,7<4[8:1],,,,7,,3>8[8:1],,,,
7,,6,,5,,,,2<6[8:1],,6<2[8:1],,,,,,
{16},3,3,3,,,2,2,2,2,2,2,2-6[8:1]*-6[8:1],2,2,2,
2bw6[4:29],,,,
&inote_6=(92)
{2},
(184)
{16}3-6[8:1],,7,,3,,,,8,1,7,2,6-3[8:1],,2,,7h[2:1],,,,,,,,4h[2:1],,,,,,,,
2h[2:1],,,,,,,,5h[2:1],,,,,,,,7h[2:1],,,,,,,,1h[2:1],,,,,,,,
3h[2:1],,,,,,,,5h[2:1],,,,,,,,8h[8:3],,,,,,3h[8:3],,,,,,,,6,5,
6h[8:3],,,,,,4h[8:3],,,,,,1h[8:2],,,,3h[8:3],,,,,,5h[8:3],,,,,,8h[16:7],,,,
,,,1h[16:3],,,2h[16:3],,,3h[16:3],,,4h[8:1],,5h[8:1],,6h[2:1],,,,,,,,7h[16:7],,,,,,,,
8h[16:7]/1pp5[4:3],,,,,,,,7h[16:7],,,,,,,,6h[16:7],,,,,,,,1h[16:7]/8qq4[4:3],,,,,,,,
2h[16:7],,,,,,,,3h[2:1],,,,,,,,7h[4:3],,,,,,5h[8:3],,,,,,,,46,35,
2h[8:3]/4,,,,,,4h[8:3],,,,,,1pp5[4:3],,,,8h[16:5],,,,,,7h[16:5],,,,,,6h[16:5],,,,
,,2v5[4:1],,,,,,,,,,4-8[8:1]/6,,3,,2h[8:3]/4,,,,,,3>5[4:2],,,,,,,,,,
,,,,,,2-7[8:1]/8,,,,6-2[8:1]*v4[8:15]/2,,5,,6,,,,,,,,,,,,,,,,,,
,,,,,,,,,,,,,,,,1h[8:5]/7h[4:1],,,,,,3h[4:1],,,,,,8,,7<4[8:1],,
,,3>8[8:1],,,,6v1[8:1],,,,5,,4,,3,,2,,1/3-7[8:1]*v5[1:1],,,,3,,,,,,,,,,
,,,,,,,,,,,,8<5[8:1],,6>3[8:1],,8/4>1[8:1],,,,,,8-4[8:3],,,,,,,,,,
,,,,35,,6-1[8:1],,,,4-7[8:1]/6,,3,,2-5[8:1]/4,,,,,,,,1-5[8:1],,,,1/3-7[8:1],,2,,3h[8:7],,
,,,,,,,,,,,,,,,,1h[8:5]/3h[4:1],,,,,,7h[4:1],,,,,,17,,68,,
,,6-2[8:1]/8-4[8:1],,,,68,,,,35,,35,,46,,57,,6-2[8:1]/8-4[8:1],,,,68,,,,,,,,,,
3-6[8:1]/5,,4,,23,,,,2,6,3,5,4,,5,,46,,7,5,6,,35,,2,4,3,,45,,13,,
2,8,1,,17,,28,,8,7,8,,1,2,1,,2h[4:1]/7h[4:1],,,,,,3h[4:1]/6h[4:1],,,,,,46,,25,,
,,1h[8:1]/4h[8:1],,,,4h[8:1]/7h[8:1],,,,28,,2,,24,,
{16}3b,5,4,6,3,5,3,5,2,6,2,6,1,7,1,7,
1b/6b,,27,,1,5,1,5,2,6,3,7,4,8,4,8,3h[4:1]/7h[4:1],,,,,,2h[4:1]/6h[4:1],,,,,,2-5[8:1],,7-4[8:1],,
2,,7,,,,36,,18,,,,27,,27,,3b,7,2,6,1,5,2,6,3,7,2,6,3,7,4,8,
3b/7b,,6,5,6,4,6,3,6,2,6,1,5,1,4,1,3,,2,8,2,,7,1,7b/8,,1,,1b/2,,8,,
7,,3,5,3,,6,4,6,,4/5b,,3,,4b/5,,
2,6,3,5,4,6,1,5,2,8,3,6,4,1,3,7,2,8,1,5,8,6,3,4,2,7,5,6,8,6,2,5,
3,,2,5,3h[8:2],,2h[8:1],,,,17,,75,,37,,
28,,1,2,8h[8:2],,2h[8:1],,,,24,,46,,68,,,,2h[8:1]/5h[8:1],,,,4h[8:1]/7h[8:1],,,,3,,8,,5,,
7-4[8:1],,6,,3v1[8:1]/7,,2,,7v5[8:1]/3,,6,,3-8[8:1]/7,,2,,7-5[8:1]/3,,6,,3-1[8:1]/7,,2,,37,,8,,2,,5,,
{6}1b,2b/8b,3b/7b,8b,1b/7b,2b/6b,
{16}3b/5b,,,,,,,,,,18,,1-3[8:1],,,,
1-5[8:1]/6,,,,1/7,,,,12,,2h[8:1],,,,15,,,,86,,15,,24,,,,46,,35,,24,,12,,18,,78,,,,8>3[8:1],,7-4[8:1],,8,,7,,,,12,,8,,46,,,,35,,36,,37,,
4h[16:5]/8h[16:5],,,,,,37,26,1h[16:5]/5h[16:5],,,,,,26,37,48,,3,,4/6,,5,,4/6,,7,,1/6,,2h[4:1],,
,,7h[8:1],,,,18,,82,,18,,17,,18,,,,36,,,,46,,36,,35,,3-1[12:1]/6,,46,,
3b-7[8:1]/5,,,,3b/8,,,,6,,6h[4:1],,,,8h[8:1],,,,17,,28,,17,,,,2-4[8:1],,6-8[8:1],,2-6[8:1],,
6-2[8:1],,2,,1,,,,31,,28,,17,,6h[8:1]/8h[8:1],,,,57,,68,,1h[8:1]/7h[8:1],,,,27,,37,,38,,
8h[16:5]/3h[16:5],,,,,,27,16,8h[4:1]/5h[4:1],,,,,,6h[4:2],,7,,8,,1,,2,,3h[4:2],,4,,5,,6q2[8:1],,
,,6,,,,7h[4:1],,5,,4h[4:1],,6,,8h[4:2],,,,2,,3,,2h[4:1],,5,,6h[8:3],,5,,4,,
3,,1,7,3,4,2,,6b,5,6h[8:1],,3b,4,3h[8:1],,5,,4,6,3,7,2,,4b,2,4h[8:1],,5b,7,5h[8:1],,
1,,2,8,5,6,3h[8:1],,7,4,5,2,1h[8:1],,,,
3b,,5h,3,1h,5,2h[8:1],,4b,6h,8,4h,5b,,,,2>5[8:1],,,,2,,8<5[8:1],,,,8,,2,,3,,4>1[8:1],,,,4,,7<4[8:1],,,,7,,3>8[8:1],,,,
7,,6,,5,,,,2<7[8:1],,7>2[8:1],,6,,4,,
{16},3,3,3,,,2,2,2,2,2,2,2-6[8:1]*-6[8:1],2,2,2,
2bw6[4:29],,,,
