&title=Eternal Weaving
&artist=Valkyrie
&first=-0.33
&des=标量
&lv_5=13
&des_5=标量
&inote_5=
(135){4},,,,,,,,8x/1xh[4:3],
7,6,5,
4x/5xh[4:3],3,2,1,
{1}3bxh/6bxh,
{24}4,5,4,5,4,5,4,5,4,5,4,5,4,5,4,5,4,5,{4}4xh,
{8}5h[2:1],4,4,4,{16}4,3,2,1/8,{4}7bx,
{8}5/3,6,7/5,4,5/3,{16}3,4,{8}3>1[8:1],5<7[8:1],
3,5,8,8,7/1,6,7/5,4,
3x,{16}7,6,{8}5<6-8[8:1],4,5x,{16}2,3,{8}4>3-1[8:1],5,
4,6,7/1,8,8/2,{16}1-5[8:1],2,{8}8,1b/8b,
{16},,7,6,{8}5h[8:1],{16}2,3,{8}4h[8:1],{16}7,6,{8}5h[8:1],4,
7h[8:1],5,2h[8:1],4,5/6h[8:1],4,5-2[4:1],5,
5x/6x,{16},,,,7,7,{2}7-4[4:1],
{8}Ch[4:1],{16},,,,1w5[8:1],1,{2}1,
{8}6xh[8:1],5xh[8:1],{16}4h[8:1],,,3,{8}2/7,8/1,7-4[8:1]/2-5[8:1],6/3,
{4}2b/7b,5/B3,5/B2,5/C,
4h/5p4[2:1],5,4,3,
5h/4h,4/B6,4/B7,4/C,
5h/4h,4h[8:5],{8}B3,B6,B2,E1,
{4}3h/7xh,6/B2,5/B3,5/4-8-5-3-6[4:3],
4h/5h,5,6,7,
5h/4h,6<3[2:1],{2}6/4h[2:1],
{24},5x,6x,7x,8x,1x,2x,3x,4x,5x,6x,7x,8x,1,,{8}6b,{4}6b,
{8}5h/4h[8:1],5-1b[8:1],6,5,8-6-4[4:1],7,4pp8[4:3],3,
{4}3xh[8:1],3xh[8:1],2xh[8:1],2xh[8:1],
{8}4h[8:1]/5h,3h[8:1],2h[8:1],1h[8:1],{4}8v6[8:1],8/7-3[8:1],
7/8>5[2:1],5xh[8:1],6xh[8:1],7xh[8:1],
4h/5h,{8}5w1[8:1],5,{4}5,{8}3,3,
{4}3/8<4[2:1],8/3xh[8:1],2xh[8:1],1xh[8:1],
{8}6h[8:1],5h[8:1],{4}4-1-5-8-6b[2:1],{2}4/3,
{8}1h[4:1],8,7h[4:1],8,1h[8:1],8,{4}8<5[8:1],
{24}4x/8x,3,2,1,,,{8}6q2[8:1],{16}6x,5,{8}6,4,3,2h[8:3],
{24}B3,E4,B4,E5,B5,B6,{8}E7,{16}2,4x,{8}3>8[8:1],4,3,5,
{4}7h[8:1]/6h[8:1],{8}8h[4:1],{16}7x,6x,{8}5x,5h[8:1],4,4/3,
{16}4,2,5,3,5,3,6,4,7,5,7,5,{4}7-4[8:1],
7bxh,{8}3qq8[2:1],4,3,4,5,6,
7,,,3bV16[4:1]/6bV83[4:1],5/4,3/6,,,{4}4qq3[8:1]/5pp6[8:1],
4/5,{8}3b/4b,5b/6b,2b/4b,5b/7b,
{16}2b,7,2,7,3,6,3,6,4,5,4,5,4,4,4,4,
{4}4bxpp6[4:1]*qq2[4:1],A4f,,4h[4:1]/C,
6b<2v4[2:1],A6f,{2}3h[4:1],
{4}5x/4bv1-5-8[2:1],A4f,{2}6h[4:1],
{4}5x/6b-2-7-1[2:1],A6f,{2}3h[4:1],
{4}4xh[4:1]/5xh,3h[4:1],2h[4:1],1h[4:1],
8bv5[2:1]*v3[2:1],A8f,{16},,,,,,,4,
5x-7[8:1]*-3[8:1],4,5,4,{4}5x,{16}3x/4h[8:1],2x,{8}1x,2xh[8:1],{16}6x,5x,
{1}2xp6p2[8:5]/4xq8q4[8:5],
{8}5h[8:1],4h[8:1],3h[8:1],2h[8:1],1h[8:1],8h[8:1],7h[8:1],6h[8:1],
Ch[4:3],,,B2,{2}B1,
{8}Ch[4:3],,,B8,{2}B7,
{8}Ch[4:3],,,B1/E2,{2}B8/E8,
4h/5h,{8}2,3,{4}4-2[8:1]/5-7[8:1],
5h/4h,Ch[2:1],{2}E1f,
{8}4v2[4:1]/5v7[4:1],,,,,,,4-8[8:1],
5,4h[8:1],,,{4}5h[8:1]/6h[8:1],4h[8:1]/3h[8:1],
{8}4/5h[8:1],4h[8:1],3h[8:1],2h[8:1],{24}8,1,7,2,6,3,5s1b[4:1],4,5,4x,5,4,
{4}5bx,{8}5-1[8:1],5,{4}5b,{8}3v8[8:1],2,
3x/5xv4[8:1],4-1<5[8:3],5,3,{4}2,{8}1,7z3[8:1]/2s6[8:1],
1x/8x,,,4,4v3[8:1],3,4/5,6,
5x-8[8:1],7,5/4-1[8:1],2,4/5<8[8:1],8,5/4>1[8:1],1-5[8:1],
4x/Ch[8:1],,,2,2>3-7[8:1],7<6-2b[8:1],2,5,
{4}5x,{8}6/3-8[8:1],2/7-4[8:1],3-6[8:1],7-2[8:1],3,7,
{4}5x-3-7-2-8>1[2:1],{8}5b,6bh[8:3],{16},,,,,,3bx,2,
8bx/1x,7,{8}6,5>1[4:1],5bx,1<5[4:1],1x,5x>1[4:1],5x,
{4}1x<5b[4:1],5x>1[4:1],1xV75b[8:1],5x,
{8}4xh[8:1],{16}5,4,{8}6h[8:1],{16}4,6,{8}3h[8:1],{16}5,3,{8}6bh,1x,
{4}1bxv4[8:1],1x/7bxv4[8:1],7bx-2[8:1]*-2[8:1],7x,
{8}6/5xqq2[8:3],6,7,7,8,8,5-8b[8:1]/4-1b[8:1],6/3,
{4}4b/5b,{8}8bx-6b[8:1]*-2b[8:1],8bw4[8:3],{2}8b,
E
