&title=ワンルーム隣人がちゃ
&artist=テコまる feat. 結月ゆかり
&first=0.35
&des=WULUSHAI
&lv_7=噪
&inote_7=(190)
{4},,,,7?>2[2:1],,,,,,,,7?>2[2:1],Ch[2:1],,,,,,,,,E5h[6:1]f,,
{1},,,,
{4}2-5[8:1],7-4[8:1],1-6[8:1],8-3[8:1],2-5[8:1],7-4[8:1],1-6[8:1],8-3[8:1],
2-5[8:1],7-4[8:1],1-6[8:1],8,{8}8,8,71,71,6pp8[6:1]/2pp4[6:1],,,,
{4}3-8[8:1],6-1[8:1],4-7[8:1],5-2[8:1],3-8[8:1],6-1[8:1],4-7[8:1],5-2[8:1],
3-8[8:1],6-1[8:1],4-7[8:1],5,{8},64,37,8<5[6:1]/2>5[6:1],2/8,,,,
{4}2h[8:1]/1,2h[8:1]/5,2h[8:1]/8,2h[8:1]/4,
3h[8:1]/1,3h[8:1]/5,2h[8:1]/8h[8:1],3h[8:1]/5h[8:1],
2h[8:1]/1,2h[8:1]/5,3h[8:1]/8,3h[8:1]/4,2-4[8:1],8>6[16:5],3,,
7h[8:1]/8,7h[8:1]/4,6h[8:1]/1,6h[8:1]/5,7V13[16:5]/2V86[16:5],72,,18,
{16}2,,4,3,5,,2,,7,,5,6,4,,7,,
{8}2q6[6:1],,6qq3[8:3],,,8,8,,
{4}Ch[4:1],1-3[8:1],5-7[8:1],1>4[8:1],5<8[8:1],1,2h[8:1]/4h[8:1],7h[8:1]/5h[8:1],
1/5w1[6:1],5,7V52[4:1]/3,7,1<5[4:1],5>1[4:1],1s5[4:1],,
6<2[4:1],2v4[6:1],3h[8:1],2h[8:1]/5h[8:1],
5h[8:1]/6h[8:1],7h[8:1]/4h[8:1],1/8-5[6:1]*-3[6:1],8,
2-7[6:1],7<2[4:1],5s1[4:1],,{8},2,3,4,58,7,6,5,
{1}3z7[2:1],7z3[2:1],3z7[2:1],
{8}5h[8:1],6h[8:1],7h[8:1],8h[8:1],1h[8:1],2h[8:1],3h[8:1],4h[8:1],
{1}6z2[2:1],2z6[2:1]/8s4[2:1],5V36-2-7-1[8:5],
{16}4,8,4,8,4,8,4,8,3,7,4,8,2,6,4,8,
{8}2b-4b[8:1],1b-5[8:1],2,1,8b-4b[8:1],7b-5[8:1],8,7,
{16}2,,7b,5,6,,2b,4,{8}3-8b[8:1],2b,4-7b[8:1],5b,
1-5b[8:1],2-4[8:1],1b,2,7-5b[8:1],8-4[8:1],7b,8b,
6h[4:1],1b,3h[8:1],8b,{24}3b,4,5,6,7,8,1b/6b,5,4,3,2,1,
{8}8-4[8:1],8,1-5[8:1],1,7-3[8:1],7,2-6[8:1],2,
8h[4:1],,4b,2b/6b,,,,1xpp1[2:1],,5,,1,1<1b[2:1],,5,,
{4}1,D8/A8/A7/E8,5,{8}D2/A1/A2/E2,1xpp1[2:1],,5,,1,1<1b[2:1],,5,,
{4}8,D6/A5/A6/E6,1,{8}D4/A4/A3/E4,1xpp1[2:1],,5,,1,1<1b[2:1],,5,,
,D7/A7/A6/E7,D5/A5/A4/E5,D3/A3/A2/E3,D1/A1/A8/E1,,,,
{4}4h[8:1],3h[8:1],3h[8:1],3h[8:1],4h[8:1],5h[8:1],5h[8:1],5h[8:1],
4h[8:1],3h[8:1],3h[8:1],4h[8:1],5h[8:1],6h[8:1],7h[8:1],7h[8:1],
5h[8:1],6h[8:1],6h[8:1],6h[8:1],5h[8:1],4h[8:1],4h[8:1],4h[8:1],
5h[8:9],,,,{8},1,,,,,,,
{4}7h[8:1]/8,7h[8:1]/4,7h[8:1]/1,7h[8:1]/5,
6h[8:1]/8,6h[8:1]/4,7h[8:1]/1h[8:1],6h[8:1]/4,
7h[8:1]/8,7h[8:1]/4,6h[8:1]/1,6h[8:1]/5,6-2[8:1],4v7[6:1]*v1[6:1],,8,
2h[8:1]/1,2h[8:1]/5,3h[8:1]/8,3h[8:1]/4,2V86[16:5]/7V13[16:5],27,,81,
{16}7,,5,6,4,,7,,2,,4,3,5,,2,,
{8}7p3[6:1],,3pp6[8:3],,,1,1,,
{4}Ch[4:1],8-6[8:1],4-2[8:1],8<5[8:1],4>1[8:1],8,7h[8:1]/5h[8:1],2h[8:1]/4h[8:1],
8v5[6:1]*v3[6:1]/4,8,2h[8:1]/6h[8:1],3h[8:1]/7h[8:1],8-4[6:1],4-2[8:1]*-6[8:1],,,
6<2[4:1],2v4[6:1],3h[8:1],2h[8:1]/5h[8:1],
5h[8:1]/6h[8:1],7h[8:1]/4h[8:1],8/1-4[6:1]*v6[6:1],1,
7p2[6:1],2>6[4:1],4qq3[4:1],,{8},7,6,5,41,2,3,4,
{1}6-3[2:1],2-6[2:1],7-2[2:1],
{8}4h[8:1],3h[8:1],2h[8:1],1h[8:1],8h[8:1],7h[8:1],6h[8:1],5h[8:1],
{1}3s7[2:1],7s3[2:1]/1z5[2:1],4V63-7-2-8b[8:5],
{16}5,1,5,1,5,1,5,1,6,2,5,1,7,3,5,1,
{8}7b<5b[8:1],8bp4[8:1],7,8,1bq5b[8:1],2b>4[8:1],1,2,
{16}7,,2b,4,3,,7b,5,{8}6-1b[8:1],7b,5-2b[8:1],4b,
8-4b[8:1],7-5[8:1],8b,7b,2-4b[8:1],1-5[8:1],2b,1b,
{16}3,7,3,7,2qq7b[8:3],6<3[16:5],2,6,2,,,,,,,,
{8}1-5[8:1],1,8-4[8:1],8,2-6[8:1],2,7,7,
{32}1,8,7,6,5,4,3,2,{8}1b/5b,7b/3b,,,,1xpp1[2:1],,5,,1,1<1b[2:1],,5,,
{4}1,D8/A8/A7/E8,5,{8}D2/A1/A2/E2,1xpp1[2:1],,5,,1,1<1b[2:1],,5,,
{4}8,D6/A5/A6/E6,1,{8}D4/A4/A3/E4,1xpp1[2:1],,5,,1,1<1b[2:1],,5,,
,D7f/A7/A6/E7,D5f/A5/A4/E5,D3f/A3/A2/E3,D1f/A1/A8/E1,
D7f/A7/A6/E7,D5f/A5/A4/E5,D3f/A3/A2/E3,
7-4[8:1],8,1x,2-5[8:1],1,8x,7-3[8:1],8,1x,2-6[8:1],1,8x,
7-5[8:1],8,1,,3/4x-6[8:1],3,,,3/4-6[8:1],3,,,3/4-6[8:1],2,,,3/4-6[8:1],2-4[8:1],,,
5x,6,,,6/5-3[8:1],6,,,6/5-3[8:1],7,,,,7-5[8:1],8,8,
4x,3,,,3/4-6[8:1],3,,,3/4-6[8:1],2,,,3/4-6[8:1],2-4[8:1],,,
5,5,6,6,5-3[8:1],5,6,6,5-7[8:1],5,4,4,,5,4,4,
6/5x-3[8:1],6,,,6/5-3[8:1],6,,,6/5-3[8:1],7,,,6/5-3[8:1],7-5[8:1],,,
4x,3,,,3/4-6[8:1],3,,,3/4-6[8:1],2,,,2,2-4[8:1],1,1,
5x,6,,,6/5-3[8:1],6,,,6/5-3[8:1],7,,,6/5-3[8:1],7-5[8:1],,,
4x,3,,,3/4-6[8:1],3,,,3/4-6[8:1],2,,,,2-4[8:1],1,1,
7-3[8:1],7,6-2[8:1],6,7-4[8:1],7,1,1,
2-4[8:1],2,1-5[8:1],1,2-4[8:1],2,8,8,
2-6[8:1],2,3-7[8:1],3,2-5[8:1],2,8,8,
7-5[8:1],7,8-4[8:1],8,7-5[8:1],7,1,1,
6-2[8:1],6,7-3[8:1],7,6-1[8:1],6,4,4,
3-1[8:1],3,4-8[8:1],4,3-1[8:1],3,5,5,
3-7[8:1],3,2-6[8:1],2,3-8[8:1],3,5,5,
6-8[8:1],6,5-1[8:1],5,6-8[8:1],6,4,4,
{16}3,,5,4,5,,6,,6,,4,5,4,,3,,3,,5,4,5,,6,,6,,4,5,4,,6,,
6,,4,5,4,,3,,3,,5,4,5,,6,,6,,4,5,4,,3,,3,,5,4,6,,3,,
3,,5,4,6,,2,,6,,4,5,3,,7,,3,,5,4,6,,2,,6,,4,5,3,,3,,
6,,4,5,3,,7,,3,,5,4,6,,2,,6,,4,5,3,,7,,3,,5,4,6,,6,,
{4}4h[4:1],C,4h[4:1],5,4h[4:1],C,4-1[6:1],6,
5h[4:1],C,5h[4:1],4,5h[4:1],C,5-8[6:1],3,
4h[8:1],4h[8:1],5h[8:1],5h[8:1],
4h[8:1]/6h[8:1],4h[8:1]/6h[8:1],5h[8:1]/3h[8:1],5h[8:1]/3h[8:1],
{16}4,5,3,6,4,5,2,7,4,5,1s5V31[8:7],8z4V68[16:13],Ch[128:1]f,,,,,,,,,,,,,,,,,,,,
{32}7h[8:1]/4xb,3x,2x,,,,,,1h[8:1]/4xb,5x,6x,,,,,,
7xbp3b[8:1],6x,,,1xbq5b[8:1],2x,,,7xb,,,,1xb,,,,
{8}8xb,1xb/7xb,1xb,8xb/2xb,
{32}7xb,6x,5x,,8xb,7x,6x,,2xb,3x,4x,,1xb,2x,3x,,
1h[8:1]/8xb,7x,6x,,,,,,1h[8:1]/2xb,3x,4x,,,,,,
7xb-4b[8:1],6x,,,3xb-8b[8:1],2x,,,7xb,,,,3xb,,,,
{8}6xb,5xb/7xb,3xb,4xb/2xb,
{32}8xb/B2h[8:1]/E3h[8:1]/B3h[8:1],7x,6x,5x,4x,,,,
1xb/B7h[8:1]/E7h[8:1]/B6h[8:1],2x,3x,4x,5x,,,,
{8}2b-6b[8:1],2b,1b-5b[8:1],1b,8b-4b[8:1],8b,7b-3b[8:1],7b,
5hb[4:1],,1b,3b/7b,,,,1xpp1[2:1],,5,,1,1<1b[8:3],,5,,
{16}1,8,7,6,8x,7x,6x,5x,
{48}4xb/8xb,D8f/D4f,3xb/7xb,D7f/D3f,2xb/6xb,D6f/D2f,1xb/5xb,D5f/D1f,,,,,
8x,,,,,,8xh[8:1],,,,,,
{8}7,7h[8:1],6,6h[8:1],5,5h[8:1],4,4h[8:1],
3,3h[8:1],2,2h[8:1],1,1h[8:1],8,8h[8:1],
1-5[8:1],1,2-6[8:1],2,3-7[8:1],3,4-8[8:1],4,
5-1[8:1],5,6-2[8:1],6,7-3[8:1],7,8,8,
1,1h[8:1],3,3h[8:1],5,5h[8:1],7,7h[8:1],
Cf,,8b/4b,2b/6b,,,,5bpp3[12:5],,3bv2b[6:1],,3,,,1hb[4:1],,8b,2b,
{16}4,7,5,6,4,7,5,6,4,7,
{8}5bpp3[12:5],,3bv2b[6:1],,3,,,1hb[4:1],,8b,2b,
{16}4,7,5,6,4,7,5,6,4,7,
{8}5bpp3[12:5],,3bv2b[6:1],,3,,,1hb[4:3],,,8b,6b,4b,
{32}2b,3b,4b,5b,6b,7b,8b,1b,2b,3b,4b,5b,6b,7b,8b,1b,
(154)
{4}E3hf[16:1]/A2hf[8:1]/A3hf[8:1]/D3hf[8:1],E6hf[16:1]/A5hf[8:1]/A6hf[8:1]/D6hf[8:1],
E1hf[16:1]/A8hf[8:1]/A1hf[8:1]/D1hf[8:1],E4hf[16:1]/A3hf[8:1]/A4hf[8:1]/D4hf[8:1],
E7hf[16:1]/A6hf[8:1]/A7hf[8:1]/D7hf[8:1],E2hf[16:1]/A1hf[8:1]/A2hf[8:1]/D2hf[8:1],
E5hf[16:1]/A4hf[8:1]/A5hf[8:1]/D5hf[8:1],E8hf[16:1]/A7hf[8:1]/A8hf[8:1]/D8hf[8:1],
E3hf[16:1]/A2hf[8:1]/A3hf[8:1]/D3hf[8:1],E6hf[16:1]/A5hf[8:1]/A6hf[8:1]/D6hf[8:1],
E1hf[16:1]/A8hf[8:1]/A1hf[8:1]/D1hf[8:1],E4hf[16:1]/A3hf[8:1]/A4hf[8:1]/D4hf[8:1],
E7hf[16:1]/A6hf[8:1]/A7hf[8:1]/D7hf[8:1],E2hf[16:1]/A1hf[8:1]/A2hf[8:1]/D2hf[8:1],
E5hf[16:1]/A4hf[8:1]/A5hf[8:1]/D5hf[8:1],E8hf[16:1]/A7hf[8:1]/A8hf[8:1]/D8hf[8:1],
{1},,
(190)
{8},,,,,,,18,,,25,,4-8[8:1]/7-4[8:1],,Cf,,
{4}2-5[8:1],7-4[8:1],1-6[8:1],8-3[8:1],2-5[8:1],7-4[8:1],1-6[8:1],8-3[8:1],
2-5[8:1],7-4[8:1],1-6[8:1],8,{8}8,8,71,71,6v1[6:1]/2v5[6:1],,,,
{4}3-8[8:1],6-1[8:1],4-7[8:1],5-2[8:1],3-8[8:1],6-1[8:1],4-7[8:1],5-2[8:1],
3-8[8:1],6-1[8:1],4-7[8:1],5,{8},64,37,8<5>2p8<5[3:4]/2>5b[6:1],2/8,,,,
