&title=月と花束
&artist=さユり
&first=0.03
&des=MYOU
&lv_5=13+
&inote_5=(110.2)
{1},
{8}3,4,5pp6[4:1]*qq4[4:1],6,,,,,
{8}6,5,4V25[16:5]*pp5[16:5],3,,,,,
{8}3,4,5,6,7h[4:1],6,5p4[16:5],4,3h[2:1],,,,4-8[8:1],,,,
{8}2,3,4>7[4:1]*pp6[4:1],5,,,,,
{8}7,6,5qq5[16:5]*pp5[16:5],4,,,,,
{8}3,4,5,6,7h[8:3],8,1,2,
{1}3x>1-4[2:1]b/7x<5-8[2:1]b,
(175)
{8}3/7<4[4:1],7,3,,3,,3,,
{8}5q4[8:3]/3,,3,,3,,3,,
{8}4<1[8:3]/2h[8:1],,2,,2,,2,,
{8}8p5[8:4]/2,,2,,2,,2,,
{8}1/4q8[4:1],4,1,,1,,1,,
{8}1/7p6[8:3],,1,,1,,1,,
{8}8h[8:1]/5pp4[8:3],,1,,2,,3,,
{8}4<7[4:1]/5,,6,,8-4[8:1]b,1,2,,
{2}3-8[8:1]/5v8[8:1],1v4[8:1]/6-1[8:1],
{8}3/8h[4:1],,2,8,5,6,8>3[8:1],,
{2}4-1[8:1]*-7[8:1],6-1[8:1]/2-6[8:1],
{8}8/5h[4:1],,7,5,6,3,4<7[8:1],,
{8}1b,,8,28,3,4,5>2[8:1]/6,,
{8}8,8,1,17,6,5,3/4<3[4:3],,
{8}E4,E3,E2,E1,E8,E7,E6,,
{8}2xb/6xb,2xbv5[8:1]/6xbv1[8:1],2xb/6xb,2xb/6xb>8[8:3]b,,,,,
{8}7-5[8:1],6,4-2[8:1],3,8xv1[8:1]*v5[8:1],,8b-6[8:1],,
{8}2-4[8:1],3,5-7[8:1],6,1xv8[8:1]*v4[8:1],,1b-3[8:1],,
{8}7-5[8:1],6,4-2[8:1],3,8xz4[4:1],,4V28[4:1],,
{8}8V64[4:1],,4>6b[4:1],,1-5[8:1],,1x,,
{8}4>1[8:1]/6,,,8,3-8[8:1]/7,6,5,4,
{8}1-5[8:1]/3-7[8:1],,13,,8w4[8:1],,8,,
{8}7/2<7[8:1],7,6,5,4/8q4[8:1],4,5,6,
{16}37,,2,1,2,1,2,,7,8,7,8,7,1,6,2,
{8}5-7[8:1],4,3-8[8:1],2,5x-8[8:1]*-3[8:1],,5b-1[8:1],,
{8}2-4[8:1],3,8-4[8:1],7,1x-5[8:1]*-3[8:1],,1b-7[8:1],,
{8}6-4[8:1],5,8-2[8:1],1,7xV51[4:1],,1<8-6-4-2b[4:1],,
{16}3h[4:1],,,,,,,,8,2,8,2,7,3,7,3,
{8}6<1[8:1],6,5,4,3<6[8:1],3,2,1,
{4}7/8-4[8:1],5-1[8:1]/8,5/2-6[8:1],2/8<5[8:1],
{4}4b-1[8:1]*-7[8:1]/8b,4x,2b-5[8:1]/6b-1[8:1],2x/6x,
{4}3b>4[4:1]/7hb[4:1],,8xbv3[8:1]*v5[8:1],,
{8}2b>5[8:1]/6,2,1,8,7b>2[8:1],7,6,5,
{8}4b-8[8:1],4,3,2,{16}1b,7,1,7,2,6,2,6,
{8}3h[8:1],2x,4h[8:1],1x,5h[8:1],8x,6h[8:1],7x,
{8}8h[8:1],6x,1h[8:1],5x,2h[8:1],4x,3-7b[8:1],,
{32}8-5[8:1],Cf,,,{8}8,1-4[8:1],1,6-2[8:1],6,3-7[8:1],3,
{8}1-6[8:1],1,5-2[8:1],5,7-4[8:1],7,1-4[8:1],1,
{8}5-7[8:1],6,2-4[8:1],3,8-5[8:1],7,3<6[8:1],2,
{8}7-3[8:1],8,5>2[8:1],4,1,7,86,5,
{16}1x,8,2,8,3,8,4,8,1x,7,2,7,3,7,4,7,
{16}1x,6,2,6,3,6,4,6,1x,5,2,5,3,5,4,5,
{1}1xb>7q8[1:2],,
{1}8xb>8>1>2>3<4b[4:7],
{1},
(110)
{8}6,5,4,3,6,5,4<6[8:1],3,
{8}2,3,4,5,2,3,4>2[8:1],5,
{8}6,5,4,3,2,3,4q5<3q5b[1:2],5,
{32},6xh[8:13],
