&title=Flashback
&artist=MIYAVI vs KenKen
&first=0
&des=Deja Vu
&lv_5=13
&inote_5=(140)
{4},,,,
{8},,,,,,,5,
{16}4h[16:8]/6h[16:8],,,,,,,,,,,53,,,62,,,,,,,,,,7h[16:3]/5,,,6h[16:3],,,8,,
{16}7h[16:8]/1h[16:8],,,,,,,,,,,64,,,73,,,,,,,,,,6^3b[8:1],2,7,3,,,,,
{8}2h[8:2],1,8h[8:2],3,1^6[16:2],5,7,,
7h[8:2],8,1h[8:2],6,8-4[16:2],5,1,,
3h[8:2]/5,4,2-4[12:1],1,2x,1-5[8:1],8,1x,
7,6h[8:1],2,3h[8:1],{24}7,6,5,1,2,3,{8}4-1[32:3]/8-5[32:3],,
{16}Cf,,,,,,,,3h[16:3],,,4,3x,,5qq6[16:5],,,,,,1x,,,,2h[16:3],,,4,2bx-4[12:1],,5,,
{16}26,,,,8x/5x,,7,,7h[16:3],,,6,7x,,5qq8[32:9],,,,,,6x,,,,5bs1b[32:7],,1b,,,,,,
{16}2,,,,7x/5x,,6,,6h[16:3],,,5,6x,,4pp3[16:5],,,,,,8x,,,,7h[16:3],,,5,7bx-5[12:1],,4,,
{16}73,,,,1x/4x,,2,,2h[16:3],,,3,2xq3[32:18],,6q7[32:14],,,,,,,,,,,,,,Cf,,,,
{8}2-4[12:1],16,5,,6-1[8:1],47,5,,84,3h[8:1],5,6-3[32:3]/2-7[32:3],3-6[32:3]/7-2[32:3],,,,
{8}24,3,56,7,8-6[12:1],8-2[12:1],8x-5[32:3],8x-3[32:3],8x-4[32:3],8x,8x,1,3^8b[8:1]/5^8b[8:1],26,3b/5b,,
{8}6h[8:2],7,5h[8:2],8,4^7[8:1],12,,,
3h[8:2],2,4h[8:2],1,5w1[8:1],87,,,
6h[8:2]/4,5,7-4[8:1],8,7x,8-4[8:1],1,8x,
2h[32:1],3,7h[32:1],6,{16}2h[16:1],1h[16:1],3h[16:1],8h[16:1],4h[16:1],7h[16:1],5h[16:1],6h[16:1],
{16}Cf,,,,,,,,{16}2>5[8:1],,,1,2bx,,8,,
7/6,,5hx[8:2],,6bx,,7hx[8:2],,8-4[8:1],,5x,,8bx,,1x,,
{16}2-5[8:1]/6v1[8:1],,,,6bx/2bx,,,,7v4[8:1],,,8,7bx,,1,,
25,,3hx[8:2],,1bx,,4x,,1bv2-4b[32:7],,2b/8b,,,,,,
{16}5w1[8:1],,,,5bx,,,,7<4[8:1],,,8,7bx,,1,,
2/3,,4hx[8:2],,3bx,,2hx[8:2],,1-5[8:1],,4x,,1bx,,8x,,
{16}7-4[8:1]/3v8[8:1],,,,3bx/7bx,,,,2v5[8:1],,,1,2bx,,8,,
Cf/B3/B7/A3/A7,,,,,,,,2h[16:3],,,3h[16:3],,,4,,
{16}6/5bx,,7,,6/5bx,6,,4,5bx/4,,7,7,5bx,6,6,,
{16}3/4bx,,2,,3/4bx,3,,5,4bx/5,,2,2,4bx,3,3,,
{16}6/5bx,,7,,6/5bx,6,,4,5bx/4,,7,7,5bx,6,6,,
{16}3,3,4x,2,4,3x,8,3,5x-8[12:1],2,6,4x,5b,,,,
{8}4xpp4b[32:5]*qq4b[32:5],4x,,,5xqq5[32:5]`5?pp5[32:5],5x,,,
4xpp4[32:5]*qq4[32:5],4x,,,5qq5b[32:5]*pp5b[32:5],5x,,,
{8}1h[8:1],2h[8:1],3h[8:1],4h[8:1],5h[8:1],6h[8:1],7h[8:1],8h[8:1],{16}1,1,3,3,5,5,7,7,
{64}E1,A1,D2,A2,E3,B3,B4,E5,B5,B6,E7,A7,D8,A8,D1,
A1,D2,A2,D3,A3,D4,A4,D5,A5,D6,A6,D7,A7,D8,A8,D1,,
{8}Cf,,,,,,,,,,,,,,,,
{8}6<3[32:56]/3,,,,,,,,,,,,,,,,
{8}5<4[32:50],,,,,,,,,,,,,,,6xpp6pp5[32:17],
{8},,,,,,,2xpp2pp1[32:17],,,,,,,8xw4b[32:3],,
{32}8b`C,B4/B3/B5,,,,,,,{8}2-5[32:3],,6h[8:3]/2,,5,7qq8[16:5],,8,
{8}1-5[8:1],,4w8[8:1],,4q5b[16:5],,
{8},,7-4[32:3],,7/3h[8:3],,4,2pp1[16:4],,1,
{8}8-4[8:1],,5w1[8:1],,5pp4b[16:5],,
{8},,1-5[32:3],,1/6h[8:3],,5,7qq8[16:5],,8,
{8}1>6[16:4],2,3,,1h[8:8],7x<5p4>2[32:15],
{8},,,,,,8h[8:8],7x<5p4>2[32:15],
{8},,,,,,1xw5b[32:3],,
{32}A1/B1/Cf/B5/A5,,,,,,,,{8}73,2,15,{16}2,4,6-2b[8:1],,7,,
{16}5^8[8:1],,3,,1-5[8:1],,,,8x/1b>7[32:7],,,,1bqq3b[16:5],,,,
{8},,4,6,84,{16}7,5,3-7b[8:1],,2,,
{16}4^1[8:1],,6,,8-4[8:1],,,,1x/8b-6-2-5b[32:10],,,,8b,,,,
{8},,83,2,16,{16}2,8,6-2b[8:1],,7,,
{16}4^7[8:1],,3,,1s5[16:3],,2,,8/1,,,,{8}6h[8:8],1b-3-8-4-7b[32:15],
{8},A3f,A8f,A4f,A7f,,2h[8:8],1b-3-8-4-7b[32:15],
{8},A3f,A8f,A4f,A7f,,8pp3[32:28],,
{8},,,,,,7p4[32:22],,,,,,,,7-4[8:1],,4-7b[8:1],,,,,,
