&title= 勇者
&artist=YOASOBI
&first=0
&des=谁啊写小妹妹15,有病啊
&lv_5=15
&inote_5=(208){1},
{8}18,2-6[8:1]/7,8,1,,7-3[8:1]/2,1,8-4[8:1],,6-2[8:1]/8,,3-8[8:1]/6,,1w5[8:1]/3,,1b,
{8},3-7[8:1]/5,6,7,,6-2[8:1]/4,3,2-4[8:1],,1-5[8:1]/2,,1/8-4[8:1],,7-5[8:1]/8,,3/7b,
{8}4,34,23,{24}2,1,2,1,,,3<6[4:1],,,,,,{8}6<1[4:1],,1>4[4:1],,4-8[4:1],,8V24v2-7[2:1],7,6,
{8}5,5h[8:1],,5,5b,6h[8:1]/1,1,7h[8:1]/2,2,{24}3,2,1,8,,,1h[64:1],,,8bw4[8:1],71,26,5/3/E4/E5,,,Cf,,,,,,
{8}1b/8b,1-5[8:1],2,13,,8-4[8:1],7,86,5,{16}3,4,3,,{8}2-5[8:1]/5,1,2/6-1[8:1],7,6,
{8}5,48,37,56,4,38,27,1/6<1[8:1],2,{16}2,3,4-8[8:1],,{8}4,8,7,6,15,
{8}34,E2/E6,E1/E7,{16}8<5[8:1],7,8,,{8}18,1,2-6[8:1],6,{16}6,7,8-4[8:1],,{8}7,1-5[8:1]/8,2,16,7,
{8}8,7,6,83,72,61,15,2-7[8:1]/3-6[8:1],23,{16}E3,C,E7,,{8}8bp4v3>1[8:3]*q4v5<7[8:3],,,,,{32}A8,A7,A6,A5,A4,A3,A2,A1,E8,E7,E6,E5,E4,E3,E2,E1,{8}Ch[8:1]f,,1hb[8:1]/8hb[8:1],,
{12}2/E6/B5/B6,3,4,5,6,7,E4/B4/B3/8,1,2,3,4,5,E2/B1/B2/6,7,8,1,2,3,4/E8/B8/B7,5,6,7,8,1,2/E6/B5/B6,3,4,5,6,7,E4/B4/B3/8,1,2,3,4,5,E2/B1/B2/6,7,8,1,2,3,4/C,5,6,7/B6,8,1,
{24}A6/2b,D6,A5,D5,A4,D4,A3,D3,A2,D2,A1,D1,A8/4,D8,A7,D7,A6,D6,A5,D5,A4,D4,A3,D3,A2/6,D2,A1,D1,A8,D8,A7,D7,A6,D6,A5,D5,A4/8,D4,A3,D3,A2,D2,A1,D1,A8,D8,A7,D7,A6/2b,D6,A5,D5,A4,D4,A3,D3,A2,D2,A1,D1,A8/4,D8,A7,D7,A6,D6,A5,D5,A4,D4,A3,D3,A2/6,D2,A1,D1,A8,D8,A7,D7,A6,D6,A5,D5,A4/8b/B8/Cf/B4,,,,,,,,,,,,
{8}18,1>4[8:1],1,1,,5<8[8:1],5,5,{16}1,1,1,,{8}2>5[8:1],,5pp2[4:1],,8b-4[8:1],,
{8}8b,3<6[8:1],2,1,,8<5[8:1],1,2,{16}4,4,4,,35,,3,,26,1,8,7,26,5,4,3,
{8}12,3,48,5,47,4-8[8:1],3,4/7-4[8:1],,1-5[8:1]/7,,6p4>7[8:3]/1,,3h[8:3]/6,,,
{8}4,4,4,4,4,38,27,16,58,8w4[8:1],,8b,A4f,26,17,,
{8}18,8-5[8:1],8,2-6[8:1],2,7-3[8:1],7,3q5[4:1],4,5<3[4:1],4,3,4,4-1[8:1]*-7[8:1],,4,
{8},1-4[8:1],1,7-3[8:1],7,2-6[8:1],2,6p4[4:1],5,4>6[4:1],5,6,5V31[4:1]*V71[4:1],5,5,,
{8},8<5[8:1],8,2-6[8:1],2,7p1[4:1],,1p3[4:1],,3p5[4:1],,5p7[4:1],,{16}7<3>7[8:3],8,1,2,3,4,
{8}5h[4:1],,,5,48,,3-8[8:1],7-4[8:1],3,7,,1h[16:3]/5h[16:3],,{32}15,26,37,48,1b/5b,,,,,,,,
{8}35,8,,46,1,,1/2pp5-7[8:3],12,2,1,8,1,2,3,4,4,
{8}64,1,,53,8,,8/7qq4-2[8:3],87,7,8,1,8,{24}7,6,5,4,3,2,1,8,7,6,5,4,
{8}1-5[8:1]/3,1,8-4[8:1],8,7-3[8:1],7,6-2[8:1],6,5>2[8:1]*<8[8:1],,5,,4<7[8:1]*>1[8:1],,4,,
{16}8,8,8,8,1,7,1,7,2,6,2,6,3,5,3,5,4,3,25,6,73,2,16,7,81,2,3,4,5,6,7,8,
{2}1b-5b[2:1],,,{32}1b/8b/Cf,2b/7b,3b/6b,4b/5b,,,,,,,,,
{8}3-8[8:1]/7,2,3/7-4[8:1],6,1-5[8:1]/7,2,51,6h[8:1],{32}8,1,2,3,7h[8:1],,,,1,2,3,4,7,,,,{8}56,67,78,{16}1,8,1,8,1,8,1,8,{24}2,3,4,7,6,5,{8}1-4[8:1],1-6[8:1],1,1x,,27,{16}27,3,4,5,6,7,84,1,2,3,48,,
{24}1b-5b[8:1]/2b-6b[8:1],38,47,,,,1b/2b,,,,,,8b-4b[8:1]/1b-5b[8:1],27,36,,,,8b/1b,,,,,,7b-3b[8:1]/8b-4b[8:1],16,25,,,,7b/8b,,,,,,1b-5b[8:1]/5b-1b[8:1],26,37,48,,,1b/5b,,,,,,
{24}2b/6h[8:1],3,4,5,,,7b/3h[8:1],6,5,4,,,1b/8b,27,36,45,,,{32}1b,2,3,4,5,6,7,8,1bw5b[8:1],2,3,4,5,6,7,8,1b,,,,,,,,{8}4,35,26,
{8}6-1[8:1]/2,7,6/2-5[8:1],3,8-4[8:1]/2,7,48,3h[8:1],{32}1,8,7,6,2h[8:1],,,,8,7,6,5,2,,,,{8}43,32,21,{16}8,1,8,1,8,1,8,1,{24}7,6,5,2,3,4,{8}8-5[8:1],8-3[8:1],8,8x,,72,{16}72,6,5,4,3,2,15,8,7,6,51,,
{16}3b,4,2,5,1,6,8,7,5b,6,4,7,3,8,2,1,{24}3b,4,3,4,3,4,4b,5,4,5,4,5,5b,6,5,6,5,6,{32}4b,3,2,1,8,7,6,5,4b>8[8:1]/8b<4[8:1],,,,{8},,,{24}2b,3,4,7b,6,5,{32}1b,2,3,4,5b/1b,6,7,8,{8}1b/5b,1b-4b[8:1]/5b-8b[8:1],,1b/5b,,3b/7b,3b/7b,,
{24}6h[8:1]/7-3[8:1]*-5[8:1],8,1,2,,,7,,,,,,7h[8:1]/8-4[8:1]*-6[8:1],1,2,3,,,8,,,,,,8h[8:1]/1-5[8:1]*-7[8:1],2,3,4,,,1,,,,,,1h[8:1]/2-6[8:1]*-8[8:1],3,4,5,,,2,,,,,,
{24}3h[8:1]/2-6[8:1]*-4[8:1],1,8,7,,,2,,,,,,2h[8:1]/1-5[8:1]*-3[8:1],8,7,6,,,1,,,,,,1h[8:1]/8-4[8:1]*-2[8:1],7,6,5,,,8,,,,,,8h[8:1]/7-3[8:1]*-1[8:1],6,5,4,,,7,,,,,,
{24}1b<3[4:1],,,,,,5b,4,3,2,1,8,7b>5[4:1],,,,,,3b,4,5,6,7,8,1b,,,,,,{8}45,45,36,36,27,27,
{24}8b>6[4:1],,,,,,4b,5,6,7,8,1,2b<4[4:1],,,,,,6b,5,4,3,2,1,{8}8b-4[2:1],E8,E1,C,E5/B5,,E4/B3,,
{16}E3,,E7,,,,E2,B2,B3,,E8/B8/B7,,,,B3/B4/E4,,,,Ch[8:1],,B2/B3/B6/B7,,,,,,,,,,,,,,,,,,,,,,,,,,,,E
