&title=レム
&artist=DOLLCHESTRA
&first=-0.03
&des=DJ ZZL
&clock_count=4
&lv_5=14
&inote_1=(180)
{16},,,,,,,,,,,,,,,
{64},
{32},E8,,,,E2,,,,E7,,,,E3,,,,,,,,B1,,,,B2,,,,B3/B4,,,,,,,,B8,,,,B7,,,,B6/B5,,,,
{16},,,,
{8}B5,B4,Ch[8:5],,,,,,,,7h[8:1],,,2h[8:1],,,,
{16}2/7,3/6,4h[8:6]/5h[8:6],,,,,,,,,,,,,,,,
{8}5h[8:2],,4h[8:1],,6h[8:2],,3h[8:1],,8,2,7,1
,8,2,7,1,,1,1,1,
{24}1b,1b,1b,,,,1x,2x,3x,4x,5hx[16:27],,,,,,,,,,,,,,,,,,,,,,,,,,2x,1x,8x,7x,6hx[16:7],,
{16},,,,,,,,,,5,6,5,,,,,,6,,,,5,,,,
{8}1,2,7,4,6,5/6,6-2[8:1]/5-1[8:1],,5/6,,,3/2,3,3/1,3,3/8,3,3/7,3,3/6,3,
{16}3,6,3,6,3,6,3,,6b,,,,,,
{24}4,5,4,5,4,5,4,5,4,5,4,5,4,
{16}5,4,5,4,5,4,5,4,5,4,5,
{8}4,5,4,5,
{256},,,,,
{8},6,,6/7,,6/8,,6/1-4[12:1],,6,,6/2-7-4[8:2],,6,,6,,6,,3/4,,3/4,,3/5,,3/5,,3/6,,3/6,,3/7>2[8:2],,3,,3,,3,5,4,,4/8,4/8,,,4-8[8:1],,8-5[8:1],,5-2[8:1],,2-6[8:1],,6-1[8:1],,1-3[8:1],,3-7[8:1],,7-3[8:1],,3,,6,,
{8}1/5,,1/5,,1/5,,5/1-4[8:1],,1/5,,5/1-6[8:1],,1/5,,1/5,,1/6,,1/7,,6h[8:1],7,8,,1/2,,3/2,,4/3,,4bh[8:2]/5bh[8:2],,,,,,2/7,,7-3[8:1],2-6[8:1],7,2,,,2/6,2/6,1/5,1/5,8/4,8/4,,3/7,,2/6,,2/6,6<2[240#8:1]/2>6[240#8:1],,,,
{32}C,,,,,,,,2-6[4:1],,,,,,2,,,,,2,,,,1-5[4:1],,,,,,1,,,,,,1,,,,8-4[4:1],,,,,,,8,,,,,8,,,,7-3[8:1],,,,,7,,,,,,,,,,,,2,,,,,,,,3,,,,4,,,,,,,,4,,,,,,,,5h[8:4]/1h[8:4],,,,,,,,
{8},,,,,7/8,,1/8,1/8,2/7,2/7,3/6,3/6,4/5,4/5,1/5,1/5,6/2,6/2,3/7,3/7,8/4,1,1,,1,1w5[28#48:1],,1-6[33#48:1]*-5[33#48:1],,1-4[40#64:1]*-5[40#64:1],,,4,6,3,7,2,8,1b,,
{8}4,5,3,6,2,7,1/8,,1-5[8:1]/8-4[8:1],,8/1,,4/5,4/5,8-4[90#24:1]/1-5[90#24:1],,5-1[90#24:1]/4-8[90#24:1],,1/8,,4/5,,8-4[120#12:1],,2-6[120#12:1],8,,2,,6h[8:5]/4h[8:5],,,,,,,
{8}3/7,,3/7,,,2/6,2/6,,,
{16}8,8,8,,
{8}1,2,3h[8:12],,,,6,6,,7,,8,1-5[8:1],,1,,,7-3[360#4:1],7,8-4[360#4:1],8,1w5[12:1],1,1,,3-7[8:1],,7-2[8:1],,2-5[8:1],,5-7[8:1],,7-1[8:1],,1-3[8:1],,3b,,
{16}8,1,7,2,8,1,7,2,8,,
{8}2h[8:7],,7h[8:5],,,,,,,5/6,,5h[8:1]/6h[8:1],,,3/4,3h[8:1]/4h[8:1],,,2pp5[8:3],2,8-4[8:1],8,8,,,,2-6[8:2],2,,6-3[8:1],,3-7[8:1],7-2[8:1],,,,1,2,8,3,7,4,,
{8}1>1[8:8]*>1[8:8],,C,,5b,,C,,1b>1[1:1],,C,,5b<5[1:1],,C,,1b>1[1:1]*>1[1:1],,C,,5b,,C,,1b,,C,,
{8}6,,6h[8:2],,2h[8:2],,7h[8:2],3,,7/3,,3h[8:1]/7h[8:1],,,,
{24},,,2/6,,,,,2/6,,,2/6,3/7,4/8,1/5,2hb[32:55]/6hb[32:55],,,,,,,,,
{32},,,,
{8},,,,,,,,,,,,,,,,,,,E1,E8,E2,E7,E3,E6,E4,,C/B1/B2/B3/B4/B5/B6/B7/B8,,C,1,C,2,C,3,C,4,C,5,C,
{16}6,7,6,7,6,7,6,7,6h[8:2],,,,,,7,6,8,5,1,4,2,3,,,,,B6,,B8,,B5,,B1,,B4,,B2,,B3,
{16},,,3,3,1,,3,3,5,,3,3,8,,3,3,6,,6,8,6,,6,4,6,,6,1,6,,6,4,6,,8,8,8,,1,1,1,,7,7,7,,2,2,2,,
{32},,,,1h[8:1],,,,,,,2h[8:1],,,,,,,8,,,,,3,,,,7h[8:1]/4h[8:1],
{8},,,,6,,5,,7h[8:2]/4h[8:2],,,,,,
{4}5qq4[8:1],7qq6[8:1],1pp2[8:1],8,
8V63[4:1],3>7[4:1],7V14[4:1],4<8[4:1],
8-3[4:1],3s7[4:1],,,
{8}1/8,,2h[8:3],3,4,5,,,1/2,3,4/5,6,7/8,7/8,,1/2-6[90#16:1],,7-3[120#12:1]/8,,2,7,,,,
{16}4h[8:2],,,,3>6[8:7],,,3,,3,,,6,,,6,,,6>2[8:6],,2,,,2,,,2<4[90#8:7]*<4[90#8:7],,4,,4,,,,3,,3,,,,2,,2,,,,1,,,,8>4[4:2],,,,,,,,,,,,,,C,,,,
{8}3h[8:1],2,3h[8:1],4,3h[8:1],1,3h[8:1],5,6h[8:1],7,6h[8:1],5,6h[8:1],7,5,B6,B3,,E6,E4,,B6/E6/B5,,
{32}1/C,2,3,4,5,6,7,8,1/C,2,3,4,5,6,7,8,1/C,2,3,4,5,6,7,8,1/C,2,3,4,5,6,7,8,1/C,2,3,4,5,,,,
{8},1/8,1/8,2/7,2/7,3/6,3/6,4/5,,4-8[8:1]/5-1[8:1],,4/5,,2q6[8:1],2,6q2[8:1],,2,,8-5[8:1]*-3[8:1],,8,,3-7[8:1],,3,4-8[8:1],,4,,5h[8:5],1,1,1,1,1,,3v8[8:1]/7v4[8:1],,3/7,,,8v3[360#4:1]/4v7[360#4:1],8/4,,,
{16}6,5,4,,3,,2,,1,,
{8},,,7/8-4[45#36:1],8/1-5[70#24:1],,1/2-6[8:1]
,,2,1,,8b,,
{8},1-4[8:1],5,1-6[8:1],5,1-3[8:1]*-5[8:1],5,1b-4[8:1]*-6[8:1],,1b-7[8:1]*-5[8:1],,1b,,6,6,5/4,,4/3,,3/2,,1b/2b,,
{8}1q5[8:2],,5,5q1[8:2],,1q5[8:2],,5>1[8:3]*<1[8:3],,,,,,,7/8,,7/8,,,1/2,1/2,,
{16},,8h[8:1],,6h[8:1],,4h[8:1],,2h[8:1],,8h[8:1],,,,,,,,1,,1,,,,8,,,,1,,8,,,,
{24}1,8,1,8,1,8,1,8,1,8,1,8,1,8,1,8,1,8,1,8,1,,,,
{8},2>2[8:8],,C,,6b,,C,,2b>2b[1:1],,C,,6b<6b[1:1],,C,,2b>2[1:1],,C,,6b,,C,,2b,,C,,1,,1,,8,,1,1,,8,,1,,,,,
{24}6b/C,,,2b/C,,,,,8b,1/7,2/6,3/5,4bw8b[8:7],,,
{8},,,,,,,,,,,6h[8:9],,,2h[8:6],,,,,,,,,5>2[8:1],,5<8[8:1],,5-2[8:1],,5-8[8:1],,,,,,,,3h[8:1],,2h[8:1],,1h[8:1],,8h[8:1],,7h[8:1],,5b/6b,,5h[8:2]/4b,3,2,,4h[8:2]/3b,2,1,,3h[8:2]/2b,1,8,,5v7[8:1]/3v1[8:1],,3/5,,8-5[8:1]/2-5[8:1],,2/8,,4v7[8:1]*v1[8:1],,4,,,,6/7-3[8:1],,7/8-4[8:1],,8/1-5[8:1],,1/2-6[8:1],,2/3-7[8:1],,3/4-8[8:1],,4/5,,,,,,5hb[8:6],,4hb[8:4],,,,,,6b,,3b,,7b,,2b,,,,1b-4b[8:11]/8b-5b[8:11],,,,,,,,,,,,,,,,,,4,5,3,6,2,7,1>5[8:3],,5,,6,,8,8<4[8:3],4,,3,,2,,1,,1,,5,3,,7,,4h[8:4]/8h[8:4],,,,,,,7-3[8:1],,7,,,2-6[360#4:1],2,,,
{16}6,5,4,,3,,4,,5,,,,,,,,8,,1,,,,7h[8:3],,,,2,,2,,,,6/3,,,,,,
{16}3,,4,,2,,5,,1,,6,,7/8,,8,7,1,6,8,1,7,6,8,1,7,6,5,7,4,6,5,7,4,6,5,7,4,6,5,7,4,8,6,7,1,3,2,8,6,7,1,3,2,8,6,7,3,1,2,7,5,6,2,4,3,7,5,6,2,4,3,1,4,3,1,4,6,1,4,3,1,4,6,1,4,3,1,4,6,8,4,2,8,4,6,8,4,2,8,4,6,,,,1/8,,,,1,8,3,6,1,8,3,6,1,8,3,6,1,8,3,6,1,8,2,7,1,8,2,7,1,8,2,7,1,8,2,7,1bw5b[24#48:1],,,,8b,,2b,,7b,,3b,,6b,4b,,5b,,,,,1,1,1,1,1,1,1,1,1,1,1,1b,,,,,
{8}7/C,,3/C,,7-3[60#24:1]/8-4[60#24:1],3/4,1-5[60#24:1]/2-6[60#24:1],,5/6,,7/8,,1/2,,4,,7,3,,8,,1h[8:5]/2h[8:5],,,,,,,3/7,,3/8,,,2/6,1/6,,,
{16}1,1,1,,2,,3,,4,,,,,,3/6,,,,3,4,2,5,1,6,8,7,5,6,4,7,3,8,2b/1b,,
{16},,,,5,,1,,6,,2,,5/2,,5/3,,
{8}5/4-8[8:1],,2q6[8:1]/4,,2/5-1[8:1],,3/5,,8-3[8:1]/3[8:1],,8/3-5-7[8:1],,2-6[8:1]/3,,1/2,,7,8,1,2,,7/8,,1h[8:4]/2h[8:4],,,,,,,7,,8/6,,,2,1/3,,,6,5,4,3h[8:3],1h[8:2],,,,4,6,,3,,7,2,,8,,8,8-5[8:1],8-3[8:1],8-4[8:1],8,8,,
{8}2b>2b[8:8],,C,,6b,,C,,2>2[1:1],,C,,6<6[1:1],,C,,2b>2[1:1]*>2[1:1],,C,,6b,,C,,2b,,C,,8,,8,,1,,7,2,,6h[8:4],,3h[8:2],,,,
{32},,,6,5,4,,2,1,8,,,,,8/4,1/5,2/7,3/6,4h[16:29]/8h[16:29],,,,,,,,,,,,,,,,,,
{16},,,,,,,,,,,,,,,,,,,,,,,,,,,,,E1,,,,E5,,,,E1,,E8,,E2,,E7,,E3,,E6,,E4,,,,,C/B1/B2/B3/B4/B5/B6/B7/B8,,
{8},6,6/7,6,6/8,6,6/1,6,6/2,6,6/3,6,
{16}3,4,3,4,2,5,2,5,1,
{32},,,,,,,,,,,4,5,6,7,8,1,2,3,4,5,6,7,8,1,2,3,4,5,6,7,8,
{16}1,2,3,4,5,6,7,8,1,2,3,4,5,6,7,8,5b-1b[16:58]/1,,,,,,,6b-1[16:51],,,,,,4b-1[16:45]*-1[16:45],,,,,,7,,,,,,3,,,,,,,,,,,,
&inote_5=(180)
{8},,,,,,,,
{32}E8,,,,E2,,,,E7,,,,E3,,,,,,,,B1,,,,B2,,,,B3/B4,,,,,,,,B8,,,,B7,,,,B6/B5,,,,
{16},,,,
{8}B5,B4,Ch[8:5],,,,,,,,7h[8:1],,,2h[8:1],,,,
{16}2/7,3/6,4h[8:6]/5h[8:6],,,,,,,,,,,,,,,,
{8}5h[8:2],,4h[8:1],,6h[8:2],,3h[8:1],,8,2,7,1
,8,2,7,1,,7,7,7,
{16}7b,7b,7b,,
{24}8x,1x,2x,3x,4x,5hx[24:40],,,,,,,1,,,1,,,,,,1,,,,,,,,,1x,8x,7x,6hx[8:4],,,
{16},,,,,,,,,,5,6,5,,,,,,6,,,,5,,,,
{8}1,2,7,4,6,5/6,6-2[8:1]/5-1[8:1],,5/6,,,3/2,3,3/1,3,3/8,3,3/7,3,3/6,3,
{16}3,6,3,7,3,8,3,1,3b,,,,,,
{24}4,5,4,5,4,5,4,5,4,5,4,5,4,5,4,
{16}5,4,5,4,5,4,5,4,5,4,
{8}5,4,5,4,
{8},6,,6/7,,6/8,,6/1-4[12:1],,6,,6/2-7-4[8:2],,6,,6,,6,,3/4,,3/4,,3/5,,3/5,,3/6,,3/6,,3/7-5-1[8:2],,3,,3,,3,5,4,,4/8,4/8,,,4p8[8:2],,8p4[8:2],,4>8[8:2],,8<4[8:2],,4-2[8:2],,2-6[8:2],,6,,8-4[8:1],,8,,2/6,,
{8}7-5[8:1]/8,,7/8,,3-1[8:1]/4,,3/4,,2v5[8:1]/6v1[8:1],,2/6,,7qq4[8:2]/8pp3[8:2],,7/8,,,,1/7,,6h[8:1],7,8,,1/2,,3/2,,4/3,,4bh[8:2]/5bh[8:2],,,,,,2/7,,7-3[8:1],2-6[8:1],7,2,,,5h[8:1],1,4h[8:1],8,1,1h[8:1],,3/7,,2/6,,2/6,6<2[16:1]/2>6[16:1],,,,
{32}C,,,,,,,,8h[8:4],,,,,,E5,,,,,,E4,,,,1h[8:4],,,,,,E8,,,,,,E7,,,,5h[4:2],,,,,,E2,,,,,,E3,,,,4h[8:1],,,,,,,8h[32:57],,,,,,,,,5,,,,,,,,4,,,,3,,,,,,,,2,,,,,,,,1h[8:5],,,,,,,,
{8},,,,,7/8,,1/8,1/8,2/7,2/7,3/6,3/6,4/5,4/5,1/5,1/5,6/2,6/2,3/7,3/7,,5q1[8:1],5,,3,3,,3/7,7/8,1/2,3/7,2/6,4/8,6/3,3/7,7/5,2/1,8/1,1b/8b,,
{8}4,5,3,6,2,7,1/8,,1-5[8:1]/8-4[8:1],,8/1,,4/5,4/5,1>3[8:1]/8<6[8:1],,1-5[8:1]/8-4[8:1],,1>3[8:1]/8<6[8:1],,1/8,,8-4[120#12:1],,2-6[120#12:1],8,,2,,6h[8:5]/4h[8:5],,,,,,,
{8}3/7,,3/7,,,2/6,2/6,,,
{16}8,8,8,,
{8}1,2,3h[8:12],,,,6,6,,7,,8,1-5[8:1],,1,,,7-3[360#4:1],7,8-4[360#4:1],8,1w5[12:1],1,1,,3-7[8:2],,7-2[8:2],,2-5[8:2],,5-3[8:2],,3-7[8:2],,7,,3,,
{16}8,1,7,2,8,1,7,2,8,,
{8}2h[8:7],,7h[8:5],,,,,,,5/6,,5h[8:1]/6h[8:1],,,3/4,3h[8:1]/4h[8:1],,,2pp5[8:3],2,8-4[8:1],8,8,,,,2,2-6[8:2],,6-3[8:2],,3-7[8:2],7,,,,1,2,8,3,7,4,,
{8}1>1[8:8]*>1[8:8],,C,,5b,,C,,1b>1[1:1],,C,,5b<5[1:1],,C,,1b>1[1:1]*>1[1:1],,C,,5b,,C,,1b,,C,,
{8}6,,6h[8:2],,2h[8:2],,7h[8:2],3,,7/3,,3h[8:1]/7h[8:1],,,,
{24},,,2/6,,,,2/6,,,,,
{32}2/6,3/7,4/8,5/1,2hb[4:7]/6hb[4:7],,,,,,,,,
{32},,,
{8},,,,,,,,,,,,,,,,,,,,E1,E8,E2,E7,E3,E6,E4,,C/B1/B2/B3/B4/B5/B6/B7/B8,,C,1,C,2,C,3,C,4,C,5,C,
{16}6,7,6,7,6,7,6,7,6h[8:2],,,,,,7,6,8,5,1,4,2,3,,,,,B6,,B8,,B5,,B1,,B4,,B2,,B3,
{16},,,3,3,1,,3,3,5,,3,3,8,,3,3,6,,6,8,6,,6,4,6,,6,1,6,,6,4,6,,8,8,8,,1,1,1,,7,7,7,,2,2,2,,
{32},,,,1h[8:1],,,,,,,,2h[8:1],,,,,,,8,,,,,3,,,,7h[8:1]/4h[8:1],,,,
{8},,,6,,5,,7h[8:2]/4h[8:2],,,,,,
{4}5qq4[8:1],7qq6[8:1],1pp2[8:1],8,
8V63[4:1],3>7[4:1],7V14[4:1],4<8[4:1],
8-3[4:1],3s7[4:1],,,
{8}1/8,,2h[8:3],3,4,5,,,1/2,3,4/5,6,7/8,7-4[8:1]/8,,7/8-3[8:1],,7/8,,8/6,8qq3[8:1]/6qq4[8:1],,,,
{16},,,,3>6[8:7],,,3,,,3,,6,,,6,,,6>2[8:6],,2,,,2,,,2<4[90#8:7]*<4[90#8:7],,8,,,8,,,3,,3,,,,2,,2,,,,1,,,,8>4[4:2],,,,,,,,,,,,,,C,,,,
{8}3h[8:1],2,3h[8:1],4,3h[8:1],1,3h[8:1],5,6h[8:1],7,6h[8:1],5,6h[8:1],7,5,B6,B3,,E6,E4,,B6/E6/B5,,
{32}1/C,2,3,4,5,6,7,8,1/C,2,3,4,5,6,7,8,1/C,2,3,4,5,6,7,8,1/C,2,3,4,5,6,7,8,1/C,2,3,4,5,,,,
{8},1/8,1/8,2/7,2/7,3/6,3/6,4/5,,4-8[8:1]/5-1[8:1],,4/5,,2q6[8:1],2,6q2[8:1],,2,,8-5[8:1]*-3[8:1],,8,,3-7[8:1],,3,4-8[8:1],,4,,5<3[8:3],5,5,5,5,5,,3v8[8:1]/7v4[8:1],,3/7,,,8v3[360#4:1]/4v7[360#4:1],8/4,,,
{16}6,5,4,,3,,4,,5,,
{8},,,2/6,2v4[8:1]/6v8[8:1],,2/6,,E7,E3,,C,,
{8},1-4[8:1],5,1-6[8:1],5,1-3[8:1]*-5[8:1],5,1b-4[8:1]*-6[8:1],,1b-7[8:1]*-5[8:1],,1b,,6,6,5/4,,4/3,,3/2,,1b/2b,,
{8}1q5[8:2],,5,5q1[8:2],,1q5[8:2],,5>1[8:3]*<1[8:3],,,,,,,7/8,,7/8,,,1/2,1/2,,
{16},,8h[8:1],,6h[8:1],,4h[8:1],,2h[8:1],,8h[8:1],,,,,,,,1,,1,,,,8,,,,1,,8,,,,
{24}1,8,1,8,1,8,1,8,1,8,1,8,1,8,1,8,1,8,1,8,1,,,,
{8},2>2[8:8],,C,,6b,,C,,2b>2b[1:1],,C,,6b<6b[1:1],,C,,2b>2[1:1],,C,,6b,,C,,2b,,C,,1/C,,7/E5,,2/B7,,2/8,1/7,,4-8[8:1]/5-1[8:1],,4/5,,,,,
{24}6b/C,,,,2b/C,,,,8b,1/7,2/6,3/5,4bw8b[8:7],,,
{8},,,,,,,,,,,6h[8:9],,,2h[8:6],,,,,,,,,5>2[8:1],,5<8[8:1],,5-2[8:1],,5-8[8:1],,,,,,,,3h[8:1],,2h[8:1],,1h[8:1],,8h[8:1],,7h[8:1],,5b/6b,,5h[8:2]/4b,3,2,,4h[8:2]/3b,2,1,,3h[8:2]/2b,1,8,,5v7[8:1]/3v1[8:1],,3/5,,8-5[8:1]/2-5[8:1],,2/8,,4v7[8:1]*v1[8:1],,4,,,,3/2-6[8:1],,2/1-5[8:1],,1/8-4[8:1],,8/7-3[8:1],,7/6-2[8:1],,6/5-1[8:1],,4/5,,,,,,5h[8:6],,4h[8:4],,,,,,6,,3,,7,,2,,,,1b-4b[8:11]/8hb[8:13],,,,,,,,,,,,,,,,,,4,5,3,6,2,7,1>5[8:3],,5,,6,,8,8<4[8:3],4,,3,,2,,1,,1,,5,3,,7,,4h[8:4]/8h[8:4],,,,,,,7-3[8:1],,7,,,2-6[360#4:1],2,,,
{16}6,5,4,,3,,4,,5,,,,,,,,8,,1,,,,7h[8:3],,,,2,,2,,,,6/3,,,,,,
{16}3,,4,,2,,5,,1,,6,,7/8,,8,7,1,6,8,7,1,6,8,7,1,6,5,7,4,6,5,7,4,6,5,7,4,6,5,7,4,8,6,7,1,3,2,8,6,7,1,3,2,8,6,7,1,3,2,7,5,7,2,3,2,7,5,8,2,1,3,7,2,7,3,4,2,8,3,6,8,4,8,5,1,5,3,7,3,8,4,6,8,4,2,8,4,6,8,4,2,,,,1/8,,,,1,8,3,6,1,8,3,6,1,8,3,6,1,8,3,6,1,8,2,7,1,8,2,7,1,8,2,7,1,8,2,7,1b,,,,,,,,,,,,,,,,,,,,
{24}3,7,3,7,3,7,2,8,2,8,2,8,
{16}1,1,1,1,1b,,,,
{8}7/C,,3/C,,7<4[8:1]/1,1/7,7/1>4[8:1],,1/7qq5[8:1],,1pp3[8:1]/7,,7/1,,
{24}7,,,,,,4,,,8,,,,,,3,,,,,,1h[8:5]/2h[8:5],,,,,,,,,,,,,,,,,,,,,
{8}3/7,,3/8,,,2/6,1/6,,,
{16}1,1,1,,2,,3,,4,,,,,,3/6,,,,3,4,2,5,1,6,8,7,5,6,4,7,3,8,2b/1b,,
{16},,,,5,,1,,6,,2,,5/2,,5/3,,
{8}5/4-8[8:1],,2q6[8:1]/4,,2/5-1[8:1],,3/5,,8-4[8:1]/3,,8/3-5-7[8:1],,2-6[8:1]/3,,1/2,,
{16}7,,,8,1,,2,,,,7/8,,,,
{8}1h[8:4]/2h[8:4],,,,,,,7,,8/6,,,2,1/3,,,6,5,4,3h[8:3],1h[8:2],,,,4,6,,3,,7,2,,8,,1-5[8:1],8-4[8:1],1-3[8:1],8-6[8:1],1,8,,
{8}2b>2b[8:8],,C,,6b,,C,,2>2[1:1],,C,,6<6[1:1],,C,,2b>2[1:1]*>2[1:1],,C,,6b,,C,,2b,,C,,6h[8:1],,5h[8:1],,7h[8:1],,4h[8:1],8h[8:1],,1h[8:6],,3h[8:2],,,,
{32},,,3,4,5,6,7,8,1,2,3,4,5/1,6/2,7/3,8/4,1/5,2h[16:29]/6h[16:29],,,,,,,,,,,,,,,,,,
{16},,,,,,,,,,,,,,,,,,,,,,,,,,,,,,E1,,,,E5,,,,E1,,E8,,E2,,E7,,E3,,E6,,E4,,,,C/B1/B2/B3/B4/B5/B6/B7/B8,,
{8},6,6/7,6,6/8,6,6/1,6,6/2,6,6/3,6,
{16}3,4,3,4,2,5,2,5,1,
{32},,,,,,,,,,4,5,6,7,8,1,2,3,4,5,6,7,8,1,2,3,4,5,6,7,8,
{16}1,2,3,4,5,6,7,8,1,2,3,4,5,6,7,8,5b-1b[16:58]/1,,,,,,,6b-1[16:51]*-1[16:51],,,,,,4b-1[16:45],,,,,,7,,,,,,3,,,,,,,,,,,,
