&title=Gold Town
&artist=Memme
&first=0
&des=SLoeil as SM_chennn
&des_5=SLoeil as SM_chennn
&lv_4=11
&lv_5=12+
&inote_4=(160){1},
{8},,,,1h[4:3]/8h[4:3],,,,
{8},,,6h[8:9]/3h[8:9],,,,,
{8},,,,,,4/5q8[8:3],,
{8},,,,1b,,12,,
{8}7,,67,,4,,34,45,
{16}5/6h[16:3],,,7h[16:3],,,8,,18,,,,
{8}23,,
{8}8,,18,,6,,56,45,
{16}4/3h[16:3],,,2h[16:3],,,1,,18,,,,
{8}34,,
{8}1,,67,,4,,38,27,
{16}1/6h[16:3],,,5h[16:3],,,4,,34,,,,12,,,,
{16}8,,,,67,,,,54,,
{16},34,,,23,,
{8}8b-4[8:1],,1,,2-6[8:1],,7,,
{8}8-4[8:1],,3,,56,,7h[8:1],8h[8:1],
{16}1h[16:3],,,3h[16:3],,,5,,2-5[8:1]/6,,,,7,,,,
{8}3/7-4[8:1],,1,,78,,56,45,
{16}3h[16:3]/4,,,1h[16:3],,,8,,8-4[8:1]/7,,,,6,,,,
{8}1-5[8:1]/2,,3,,67,,78,18,
{16}1/2h[16:3],,,4h[16:3],,,6,,78,,2,1,2,,38,,
{16}4,,6,5,6,,47,,
{16}1b/8b,,,2b/6b,,,4b/7b,,
{16},1b/6b,,,3b/7b,,4b/5b,,
{8}2b/7b<2[2:1],,,,,,,,
{8}3pp8[2:1],,,,,,,,
{8}2p1[2:1]/6,,,,,,,,
{16}4b/7b,,,2b/5b,,,1b-5[8:1]/8bq4[8:1],,
{8},,,,83,7,62,5v8[8:1],
{8},,2,2q6[8:1],,,8<1[8:3],,
{8},,,,47,3,26,1v4[8:1],
{8},,6,6q2[8:1],,,4>5[8:3],,
{8},,,,83,7,16,5>7[8:3],
{8},,,,4,3,2,1<3[8:3],
{8},,,,8,8h[4:1],2,2h[4:1],
{8}4,4h[4:1],6,6h[4:1],8,8h[8:1],7h[8:1],6h[8:1],
{8}5h[8:1],4h[8:1],3h[8:1],2h[8:1],1,1-4[8:1],5,5-8[8:1],
{8},,2,2,,
{8}8,12,3,45,6,
{8}78,1,3,3-6[8:1],7,7-2[8:1],
{8},,4,4,,
{8}7,56,4,23,1,
{8}78,6,4,2,1,7>5[8:3],
{8},,,,8,1,2,3<1[8:3],
{8},,,,5,5h[4:1],3,3h[4:1],
{8}1,1h[4:1],7,7,56,56,34,34,
{8}26,26,18,18,1b/8b,,12,,
{8}68,,67,,24,,57,46,
{16}35,,2,1,,,38,,18,,,,
{8}87,,
{8}31,,32,,75,,42,53,
{16}64,,7,8,,,61,,81,,,,
{8}65,,
{8}82,,43,,28,,57,46,
{16}35,,2,1,,,38,,78,,6,5,6,,47,,
{16}3,,2,1,2,,38,,
{16}1b/8b,,,2b/6b,,,4b/7b,,
{16},1b/6b,,,3b/5b,,1b/8b,,
{8}1q8[2:1]/7p8[2:1],,,,,,,,
{8}2q8[2:1]/6p8[2:1],,,,,,,,
{8}3q8[2:1]/5p8[2:1],,,,,,,,
{8}4q8[2:1]*p8[2:1],,,,,,,,
{8}4/5-8[2:1],,4,,4,,4,,
{8}4-1[2:1]/5,,5,,5,,5,,
{8}6v1[8:1]/5,,5,,3v8[8:1]/4,,4,,
{16}2b/6b,,,4b/7b,,,2b/5b,,
{8}1b-5[8:1]/8b-4[8:1],,,,3/6h[4:1],,2,3h[4:1]/7,
{8},7,6h[4:1]/2,,2,1h[4:1]/8h[4:1],,,
{8}8w4[8:1],,8b,,6/3h[4:1],,7,6h[4:1]/2,
{8},2,3h[4:1]/7,,7,8h[4:1]/1h[4:1],,,
{8}1w5[8:1],,1b,,2/7h[4:1],,3,2h[4:1]/6,
{8},6,7h[4:1]/3,,3,4h[4:1]/5h[4:1],,,
{8}5w1[8:1],,5b,,7/2h[4:1],,6,7h[4:1]/3,
{8},3,2h[4:1]/6,,6,5h[4:1]/4h[4:1],,,
{8}4w8[8:1],,4b,,3/6h[4:1],3,2,3h[4:1]/7,
{8}7,8,6h[4:1]/2,2,1,37,37,37,
{8}3-8[8:1]/7-4[8:1],,3b/7b,,7/2h[4:1],7,6,7h[4:1]/3,
{8}3,4,2h[4:1]/6,6,5,73,73,73,
{8}7v4[8:1]/3v8[8:1],,7b/3b,,2/6h[4:1],1,2,1h[4:1]/5,
{8}6,5,6h[4:1]/3,2,3,84,37,84,
{8}8-5[8:1]/4-1[8:1],,8b/4b,,
{16}26,,,18,,,23,,
{16},56,,,17,,,34,,,28,,,37,,,
{16}1,2,3,4,5,6,7,8,1b-5[8:1],,
{8},7-4[8:1],,2-5[8:1],,8-4[8:1],,1q5[8:1],,
7-3[8:1],,4>1[8:1],,8p4[8:1],,2-6[8:1],,
{8}1-5[8:1],,8-4[8:1],,7-3[8:1],,2-6[8:1],,7,,
{16}2b/8b,,,2b/6b,,,4b/7b,,1b/8b,,6,5,6,,47,,
{16}18,,3,4,3,,25,,78,,4,5,4,,36,,
{16}12,,5,4,5,,36,,8,1,8,1,8,,27,,
{16}1,8,1,8,1,,27,,81,,12,12,,38,38,,
{16}25,25,,36,36,,18,,
{2}3b/6b,,,,E
&inote_5=(160)
{1},{2},
{4}2bs6[8:5]/7h[4:3],,,{8},{1}8b<2[8:9],{8},,,,,
{16}1,1,6,4,7,3,5,2,
{4}8-5[8:1]*p4[8:1],8>6[4:1],3h[4:1],,
{8}7h[8:1]/8h[8:1],,7/8qq4[2:1],16,{16}4h[8:1],,,3h[8:1],,,{8}2,
{4}1^4[8:1]*q5[8:1],1<3[4:1],6h[4:1],,
{8}2h[8:1]/1h[8:1],,2/1pp5[2:1],83,{16}5h[8:1],,,6h[8:1],,,{8}7,
{4}8v5[8:1]*q4[8:1],8>6[4:1],2h[4:1],,
{8}7h[8:1]/8h[8:1],,8/7pp2[2:1],16,{16}2h[8:1],,,3h[8:1],,,{8}4,
{4}5^2[8:1]*^8[8:1],5s1[4:1],7h[4:1],,
{16}2h[16:3],,,3h[16:3],,,4,,{4}5-2[8:1]/6-1[8:1],5b/6b,
{16}7^4[8:1]/4,,8,1,{8}7pp5[8:3],2,{16}3h[8:1],,,3h[8:1],,,3,,
{16}2q6[8:1]/4,,3,1,{8}2,8,{16}5h[8:1]/7h[8:1],,,3h[8:1]/4h[8:1],,,34,,
{16}2^5[8:1]/5,,1,8,{8}2q4[8:3],7,{16}6h[8:1],,,6h[8:1],,,6,,
{16}7p3[8:1]/5,,6,8,{8}7,1,{16}4h[8:1]/2h[8:1],,,6h[8:1]/5h[8:1],,,65,,
{16}4^1[8:1]/7,,3,6,{8}4V62[8:3],7,{16}8h[8:1],,,8h[8:1],,,8,,
{16}7-3[8:1]/1,,6,3,{8}7,2,{16}1^4[8:1]/5^8[8:1],,,,,,,,
{8}71,{24}71,6,5,{8}4,{16}3,5,2h[8:1],,1,2,,,38,,
{16}5h[8:1]/6h[8:1],,,2h[8:1]/4h[8:1],,,3h[8:1]/8h[8:1],,,1h[8:1]/7h[8:1],,,4b/6b,,2b/3b,,
{1}1b/5b<4[1:1],5<4[1:1],5<4[4:3],
{4}5pp8[2:1]*qq1[2:1],,,{8},
{16}3,4,{8}2V48[4:1],1,28,7,6V84[4:1],5,46,3,2^5[8:1],1,28,7,
{16}6,4,6,3,6,2,7,1,
{8}8V26[4:1],7,28,3,4V62[4:1],3,46,7,8V64[4:1],1,28,3,
{16}2,5,2,6,2,7,2,8,
{8}2-5[8:1],5^2[8:1],2^7[8:1],6h[4:1],,,{16}1,8,1,,
{8}7-4[8:1],4^7[8:1],7^2[8:1],3h[4:1],,,{16}8,1,7,2,
{16}8,5,6,1,4,3,5,4,6,5,7,3,4,2,8,1,
{16}2h[8:1]/7h[8:1],,,5h[8:1]/6h[8:1],,,34,,{16}4,5,6,7,18,2,3,4,
{8}5/6pp4[4:1],4,3,2,1pp4[4:1],8,7,6,
{8}6h[4:3],{16}8,1,2,3,4,5,4,3,2,1,8,,78,,
{8}1pp6[4:1],8,7,6,5pp2[4:1],4,3,2,
{8}1h[4:3],{16}3,4,5,6,7,,4,5,6,7,8,,27,,
{8}8-3[8:1],3^8[8:1],8^5[8:1],4h[4:1],,,{16}7,8,7,,
{8}1-6[8:1],6^1[8:1],1^4[8:1],5h[4:1],,,{16}2,1,3,8,
{16}4,7,3,6,2,5,1,8,2,1,3,7,8,6,4,5,
{16}3h[8:1]/6h[8:1],,,1s5[16:1]/8z4[16:1],,,1<3[4:1]/8,,{2},
{16}2^5[8:1]/5,,1,8,{8}2qq4[8:3],7,{16}6h[8:1],,,6h[8:1],,,6,,
{16}7p3[8:1]/5,,6,8,{8}7,1,{16}4h[8:1]/2h[8:1],,,6h[8:1]/5h[8:1],,,65,,
{16}7^4[8:1]/4,,8,1,{8}7p5[8:3],2,{16}3h[8:1],,,3h[8:1],,,3,,
{16}2q6[8:1]/4,,3,1,{8}2,8,{16}5h[8:1]/7h[8:1],,,3h[8:1]/4h[8:1],,,34,,
{16}5^8[8:1]/2,,6,3,{8}5V37[8:3],2,{16}1h[8:1],,,1h[8:1],,,1,,
{16}2-6[8:1]/8,,3,6,{8}2,7,{16}8^3[8:1]*^5[8:1]/4,,,,,,,,
{8}12,{24}12,3,4,{8}5,{16}6,4,7h[8:1],,8,7,,,61,,
{16}4h[8:1]/3h[8:1],,,7h[8:1]/5h[8:1],,,6h[8:1]/1h[8:1],,,8h[8:1]/2h[8:1],,,5b/3b,,7b/6b,,
{1}1b<3[2:1]/3bpp4[2:1],1>5[2:1]/5<1[2:1],3q8[2:1]/8p3[2:1],7-5[4:1]*>5[2:1]/5,
{8}3h[4:1],,4,2h[4:1]/4,,4,35,,
{16}6h[16:3],,,5,{8}6,7h[4:1]/5,,5,46,,
{8}3h[4:1],,4,8h[4:1]/2,,5,4<1[8:3]/6h[4:3],,{2},
{16}2,3,4,5,6,7,8,1,
{8}2^5[8:1],1,8,7^2[8:1],6,5,4^7[8:1],3,2,1^4[8:1],8-4[8:1],1,8-3[8:1]*-5[8:1],,8,,
{8}7^4[8:1],8,1,2^7[8:1],3,4,5^2[8:1],6,7,8-4[8:1],1-3[8:1],8<3[4:1],1,,2,,
{8}1-5[8:1],8,7,6-2[8:1],5,4,3-7[8:1],2,1,8-4[8:1],7,6,5^2[8:1]*^8[8:1],,5,,
{8}1-5[8:1],6,1,8-4[8:1],4,8,3,2,1,1>6[4:1],,7,7-3[8:1],,7b/8b,,
{8}2^5[8:1],5,2,8-4[8:1],4,8,1-5[8:1],5-2[8:1],1,6,7^4[8:1],8,1/7b^2[8:1],,3/7b,,
{8}7^4[8:1],4,7,1-5[8:1],5,1,8-4[8:1],4-7[8:1],8,3,2^5[8:1],1,8/2b^7[8:1],,6/2b,,
{8}1-5[8:1],5^2[8:1],1,6,7^4[8:1],8,7^2[8:1],3,7-3[8:1],4,7,2,1b-4[8:1]/5b-8[8:1],,1b/5b,,
{16}5h[8:1]/7h[8:1],,,3h[8:1]/6h[8:1],,,2h[8:1]/4h[8:1],,,1h[8:1]/8h[8:1],,,8h[8:1]/6h[8:1],,,5h[8:1]/7h[8:1],,,2h[8:1]/4h[8:1],,,1h[8:1]/3h[8:1],,,4b/8b,7,6,5,4b/8b,3,2,1,
{4}8^5[8:1]*p4[8:1],8^3[4:1],3^6[4:1],6^1[4:1],1qq5[2:1],2,3,{8}4,
{16}3,4,{4}2^7[4:1],7^4[4:1],4^1[4:1],1pp4[8:3]*qq6[8:3],,,{16}3h[8:1]/5h[8:1],,,3h[8:1]/5h[8:1],,,35,,
{16}2^5[8:1]/5,,1,8,2,,6,,{16}7^4[8:1]/4,,8,1,7,,3,,{16}2-6[8:1]/6,,1,8,2>8[4:1],,7,,{2}5h[4:1],
{8}12,{24}12,3,4,{8}5,{16}6,4,7h[8:1],,8,7,,,61,,
{16}2b/8b,28,,3b/4b,34,,5b/7b,57,,1b/6b,16,,{8}2b-5[8:1]/8b-5[8:1],3b/7b,2b/8b,{1},,,,,,,E
