&title=Oracle
&artist=DJ Noriken
&first=-0.01
&des=鸟间奏
&lv_5=14+
&inote_5=(205){4},,,,,,,,8h[8:5]/4<4[1:1],
{8},,,,5,6,
{4}7h[4:3],{8},,,,1,{16}2,3,
{8}4h[8:5],,,,,8,7,6,
{4}5h[4:3],,,4,
{8}4h[8:5],,,,,5,6,7,
{2}8qq2[0.5854##0.5854],{32}1,2,{16}3h[16:7],,,,,,,,,,,,,{8}5,
4,3,4,5,
{1}6,
{8}4bxh[4:1]/6bx>8[2:1],,,4xh[4:1],,,,,5bxh[4:1]/3bx-5-8[2:1],
,,5xh[4:1],,,,,2bxh[4:1]/7bx-1-4[2:1],
,,2xh[4:1],,,,,5bxh[4:1]/4bxh[4:1],
{16},,,,6,3,{32}7-4[8:1]/2-5[8:1],,,,,,,,,Cf,,,,,,,{4}3bxh[8:1]/5bxh[8:1],
{8}3/5,6bxh[8:1]/4bxh[8:1],,4/6,{4}Cf,
1bxh[8:1]/3bxh[8:1],{8}1/3,8bxh[8:1]/6bxh[8:1],,6/8,{4}Cf,
2bxh[8:1]/4bxh[8:1],{8}2/4,7bxh[8:1]/5bxh[8:1],,5/7,8/4,1s5[8:3]/3s7[8:3],
{1}2,
{4}4/7bh[4:1],{8}5,4/7bh[4:1],,6,{16}5,4,3,2,
{4}5/1bh[4:1],{8}4,5/1bh[4:1],,3,{16}4,5,6,7,
{4}4/8bh[4:1],{8}5,4/8bh[4:1],,7,{16}6,5,4,3,
{4}5/2bh[4:1],{8}6,7/2bh[4:1],,8,{16}7,6,5,4,
{8}5/1,1,2/6,2,3/7,3,4/8,4,
7/3,7,6/2,6,5/1,5,4/8,4,
{16}1,7,2,6,3,5,4,6,3,7,2,8,1h[16:1],8V24[0.4361##0.2927],7/2,6/3,
{4}5/4V68[4:1],,,3-6[8:1]/7-2[8:1],
{16}3b/7b,C,,,,,,,{8}1,2-6[8:1],8,2,
8<6[8:1],1,8,3<6[8:1],1,3,{4}8h[8:1],
{8}7<4[8:1],8,1,2,8/7-4[8:1],1,2,3,
1/7-3[8:1],2,3,4,{4}8-3[8:1]*-2>3[8:1],{32}8-5[8:1]*-6>5[8:1],E2f,,,,,,,8b,
E7f,,,,,,,,,,,{8}1>3[8:1],8,1,7-3[8:1],8,
7,8>3[8:1],7,8,6>4[8:1],7,{4}6,
{8}1-3[16:1],1-7[8:1],1-4[8:1],1-6[8:1],1,1b,7xh,8xh,
{4}1h[8:1],{16}6,5,{8}7,{16}3,4,2,7,{4}6-1[8:1]/2v5[8:1],
{16}2b/6b,Cf,,,{4}7h[8:1],{32}2-8[8:1],3,{16}4,{8}6h[8:1],2-5[8:1],7v4[8:1],
2,7,{4}3h[8:1],{16}6,6,{8}6,{16}4,4,{8}4,
{4}4-2[32:3],6,7/4-2[32:3],6,
{8}8/4-2[32:3],7,{4}6,{16}8,7,6,5/4,3,2,{8}1,
{16}1h[16:1]/5h[16:1],,,2h[16:1]/6h[16:1],,,{8}3h[16:1]/7h[16:1],8-5[8:1]/4v1[8:1],C,{4}8/4,
{8}2,3,4>1[8:1],5,6,7,{4}8<5[16:3]*>3[16:3],
8bx,{8}1b,1x,,7x/2x,2b>4z8[2:1]/7b<5s1[2:1],8/1,
{16}7/2,,,,,,,,,A1,E1,B8,C,B4,E5,A5,
{4}7x/4xh[4:1],{8}7,2/6h[4:1],,1,{32}2,,,3,,,,,{4}4/8h[4:1],
{8}4,7/2h[4:1],,,6,5,
{16}4,1,,2,,3,,4,5,6,7,8,1/5,2/6,3/7,4/8,
{1}1bV75[16:9]/5bV31[16:9],
{8}1/7,6,5/2,3,7/4,6,2/5,3,
2/8,3,4/7,6,5/2,{16}3,3,{8}4,2,
6/4,7,8/3,2,1/6,{16}7,7,{8}8,6,
5/2,3,7/4,6,5/1x,6/2x,3x/7,8/4x,
4/8,7,6/2,3,4/7,{16}6,5,{8}6,7,
8/4,3,6/2,7h[4:1]/1h[4:1],{16},,,,1,8,1,8,
{8}5x/1x,5x/1x,{16}1/5,2/6,3/7,4/8,{8}5x/1x,5x/1x,{16}1/5,8/4,7/3,6/2,
{4}1x>4[8:1]/5x<8[8:1],5/1,{8}3/1w5[8:1],8/2,{4}1b,
{8}2/8-6[8:1],3,{4}4/8,{8}5/2,{16}3,3,{8}4,2,
7/1-3[8:1],6,{4}5/1,{8}4/7,{16}6,6,{8}5,7,
5/3,2,1/6,7,8/3,{16}2,2,{8}1,3,
4/7,6,5/2,3,8x/4,3/7x,6x/2,5x/1,
1/5,2,7/3,6,5/2,{16}3,4,{8}3,2,
5/1,6,7/3,2h[4:1]/8h[4:1],{16},,,,8,1,8,1,
{8}8x/7x,8x/7x,{32}1b,2,3,4,7b,6,5,4,{8}1x,1x,{32}2b,3,4,5,8b,7,6,5,
{4}2h[16:9]/4h[16:9],,,Cf,
{16}6,5,6,5,{8}6,{16}3,4,3,4,{8}3,{16}5,4,5,4,
{8}5,{16}3,4,2,5,{8}3,{16}7,5,6,4,{4}5b,
{16}7-3[8:1],7,7,7,{8}7,{16}1-5[8:1],1,1,1,{8}1,8,8,
{16}2xh[16:1]/1xh[16:1],,,3xh[16:1]/4xh[16:1],,,{8}5xh[16:1]/6xh[16:1],{16}7-3[8:1],8,6,1,{4}7b,
{16}5xh[16:1]/2xh[16:1],,,5xh[16:1]/2xh[16:1],,5,6,7,8xh[16:1]/3xh[16:1],,,8xh[16:1]/3xh[16:1],,,3,2,
1xh[16:1]/5xh[16:1],,,5xh[16:1]/1xh[16:1],,,5,4-8[8:1],6,3,5,4b,,,,,{8}5/1h[16:1],
6/2h[16:1],,7/3h[16:1],4/8h[16:1],3/7h[16:1],,2/6h[16:1],
{4}5bV72[8:3]/1bV36[8:3],{16},,,,,,,,8w4[8:1],8,8,8,
{1}8,
,,{4},,,{32}E5,
E6,E7,E8,E1,E2,E3,E4,
{4}C,C,{8}C,E8,C,C,
{4}E7,{8}C,E6,{16}C,,,E7,{8}E3,E1,
{4}C,C,C,Cfh[4:1],
{16},,,,,,,A7,A6,A5,A4,A3,A2,A1,{8}A8,
{4}7xh[4:7],B8,B1,B2,
B3,B4,{8}B5,B6,{4}B7,
2xh[2:3]/B1,B8,B7,B6,
B5,B4,{16}B3,8,7,6,1/5,2,{8}3,
7/4x-2[8:1],7,7,7,7/5-1[8:1],7,7,7,
2/5-7[8:1],2,2,2,2/4-8[8:1],2,2,2,
{16}4,6,3,7,2,8,1,7,2,6,3,5,4h[32:1],5V31[0.4361##0.5473],6/3,7/2,
{1}8/1V75[16:7],
{4}1,1,1,1,
{8}1/5,1/5,2/6,2/6,3/7,3/7,4/8,4/8,
{16}6,5,4,3,7,6,5,4,8,7,6,5,1s5b[8:5]*z5b[8:5],8,7,6,
{1}1b,
{4}4b>1[8:1]/8b<5[8:1],4b/8b-4[8:1],8b/3b<6[8:1],3b/7b>2[8:1],
7b/3b-8[8:1],3b/6b>3[8:1],6b-1[8:1]/2bv5[8:1],6b/2b,
4b>3-1[8:1]/8b<7-5[8:1],4b/8b-4[0.2898##0.1434],8b/6b<1[8:1],6b/2b>5[8:1],
2b/6b-2[8:1],6b-8[8:1]/3b-5[8:1],6b/3w7[16:3],3b,
5b-1[8:1],5b/2b-6[8:1],2b/8b<5[8:1],8b/3b>8[8:1],
3b/6b-1[8:1],6b/4b<7[8:1],4bv7[8:1]/8bv3[8:1],4b/8b,
2b>5[8:1],2b/6b-1[8:1],6b-4[8:1]/3b-8[8:1],6b/3b,
1bw5[8:1],1b/Cf,8bw4b[8:1],8b/Cf,
{8}7b/3b,3/7,{4}7/3,{8}7b-4[8:1],6,1q5[8:1],2,
8b-4[8:1],7,3-8[8:1],2,6b-2[8:1],7,{4}6,
{8}3/8-2-5[16:3],1,6/8-6>5[8:1],7,2/8v3[8:1],1,8,7,
{32}7x,6,5,4h[32:5],,,,,8x,7,6,5,4,3,{16}2x,{8}1b-5[8:1],7p3[8:1],1,7,
{4}2b<7[8:1],2b/6b>3[8:1],6b/2b-6[8:1],{8}2b/6b,7b,
{4}8b<5[8:1]/4b>1[8:1],4b-7[8:1]/8b-3[8:1],8b-4[8:1]/4b-8[8:1],{16}8b/4b,Cf,{32},,,,2,
,,3h[16:1],,,,6,,5h[16:1],,,,,8h[32:3],2b,3,4,,,,,,8h[32:3],3b,4,{16}5,{32},,,,8h[32:3],
4b>3>2<1<8<7<6>5>4[32:15]*<5<6<7>8>1>2>3<4[32:15],5,6,{4},,,{16},,6b,
5,7,4,8,3,{8}1,2-4b[8:1],1-6b[8:1],2b,1b,
{16}4,5,3,6,2,7,1,8-5b[0.3659##0.1434]*-3b[0.3659##0.1434],2,6,1,7,{4}8,
{16}4,3,5,2,6,1,{8}7<4b[8:1],8v3b[8:1],7,{4}8,
{16}5,6,4,5,3,4,2,3,{8}1w5b[8:1],7/3,{4}1b,
{32}2b,3,4,5h[32:9],,,,,,,,,2<6b[4:1],3,4,5,6,7,8,1,{8}2x,{32},,,,,,,5,
4,3,2,1h[32:9],,,,,,,,,4<8b[4:1],3,2,1,8,7,6,5,{8}4x,,,2b,
6/4,2/8,3/5,7b/1b,8,1/7,6,
{32}2bxs6[0.8781##0.1463],3,{16}4,{32},,,,2bs6[0.5854##0.1463]*s6[0.5854##0.1463],3,{16}4,{32},,,,2bs6b[8:1],3,4,5,6,7,8,1,,,,,,,,,{16}3b,
4,2,5,1,6,{8}8,7-5b[8:1],8-3b[8:1],7b,8b,
{16}5,4,6,3,7,2,8,4,6,3,7,2,{8}8,1,
{16}7b,8,6,1,5,2,{8}4<7b[8:1],3v8b[8:1],4,{4}3,
{16}4,3,5,4,6,5,7,6,{8}8w4b[8:1],2/6,{4}8b,
{16}6b<2b[16:5],5,6,5,{8}6,{16}2,3,4,5,3,4,5,6,{8}7,
{16}3b>7b[16:5],4,3,4,{8}3,{16}7,6,5,4,6,5,4,3,{8}2,
{32}2b/1h[4:1],3,4,5,{8}6,{32},,,,,,,,7b/8h[8:1],6,5,4,{8}3,{32}1x,2,3,4,5,6,7,8,
1/5,2/6,3/7,4>8b[32:13]/8<4[32:13],{4},,,{16},,6b,
5,6,5,{8}7,{16}3b,4,3,4,{8}2,{16}7b,8,6,1,
{8}7,{16}2b,1,3,8,{8}2,{16}5b,4,5,4,{4}6/3,
{16}3bh[16:1]/1bh[16:1],,,6bh[16:1]/8bh[16:1],,4bh[16:1]/5bh[16:1],,,8bh[16:1]/7bh[16:1],,,1bh[16:1]/2bh[16:1],,3bh[16:1]/6bh[16:1],,2bx/7bx,
{4}8bx/1bxs5[16:13],{8}3,2,1,8,7-3b[8:1],6,
{1}7b,
