&title=Luminescent
&artist=DAISON
&first=0.02
&des=IcreAptEEEE
&lv_5=14
&inote_5=(141){1},
{1},
{1},
{8}2h[8:3],,,3h[2:1],,,,4qq5[8:5],
{2},,
{8}6h[8:3],,,7h[2:1],,,,8<3[8:5],
{4},,,1,
{8}1h[8:3],,,2h[2:1],,,,3pp8[8:5],
{2},,
{8}6h[8:3],,,7h[2:1],,,,8>6[8:5],
{4},,,1,
{32}2h[4:1]/6,,,,,,,,B5,E5,,,,,,,,,,,,,,,B5/3,E5,,,,,,,
{32}7h[4:1]/3,,,,,,,,B4,E5,,,,,,,,,,,,,,,E7,,,,E3,,,,
{32}8h[4:1]/2x,,,,,,,,B4,E5,,,,,,,,,,,,,,,6/B4,E5,,,,,,,
{32}1h[4:1]/7,,,,,,,,B5,E5,,,,,,,,,,,,,,,E3,,,,E7,,,,
{16}8x/3x,,,,7/5,,,,6/4,6/4,,,3/5,,,,
{16}2/4,,,,1/6,,,,7/8,,1/8,,1/2,,,,
{16}3/4,,4/5,,5/6,,6,5,6,,7/4,,3,8,3,8,
{24}2,1,2,1,2,1,2V84[24:8],1s5[24:7],2,1,2,1,,,,,,,,,,,,,
{8}7<4[8:1]/8,,1,2<7[8:1],,4,5>1[16:3],6z2[8:3],
{8},,,,1x<3[4:1],,7x,,
{8}8<5[8:1],,2,3>8[8:1],,5,6>2[16:3],7s3[16:5],,
{8},,,1x-6[8:1]*-4[8:1],,1x,,
{8}2>5[8:1],,8,7>2[8:1],,5,4V61[4:1],3s7[8:3],
{8},,,,8x>6[4:1],,2x,,
{8}1>4[8:1],,7,6<1[8:1],,4,3,2>8[16:5],
{16},,1h[2:1],,,,,,,,2,3,4/8,,7,,
{16}6/5,,4,,5h[8:1]/6,,7,,6h[8:1]/5,,4,,5h[8:1]/6<4[16:5],,7,,
{16}8h[4:1],,,,,,8,7,5-8[8:1]/6,,4,,3/5,,,,
{16}3/4,,5,,4h[8:1]/3,,2,,3h[8:1]/4,,5,,6h[8:1]/2,,1<3[16:5],,
{16},,7h[4:1],,,,,,
{32}7x,6,5,4,,,,,1-5[8:1],,,,,,,,
{16}1/8,,7,,6h[8:1]/4,,3,,2h[8:1]/8,,7,,6h[8:1]/1>7[16:5],,2,,
{16}3h[4:1],,,,,,3,2,1/8,,7,,6/3,,2,,
{8}2V84[4:1]/8,7,6,5h[4:1],,3,2,1>4[8:1]/5<8[8:1],
{8},1V73[4:1]/5,,1/2,,1b>8[8:15],,,
{1}Cf,
{16},,,,,,,,,,,,,,B4,B3,
{16}E3,,,,,,E2/E7,,,,,,,,E1/E8,,
{16},,,,,,,,,,,,,,E3,B3,
{16}B4,,,,,,E5/E6,,,,,,,,E7/E4,,
{1},
{16}E7/E3,,,,,,,,E6/E4,,,,,,C,,
{1},
{16}3h[2:1],,,,4,,5,,6h[2:1],,,,,,,,
{16}7pp3[2:1],,,,,,,,6,,,,,,,,
{8}7h[2:1],,4,3,2h[2:1],,,,
{2}1V74[8:3],2,
{8}6h[2:1],,5,4,3h[2:1],,,,
{2}2z6[8:3],3,
{8}1b-5[8:9],,,,E7,,,E3,
{16},,,,,,,,,,1,8,1,,2/7,,
{8}3h[8:1]/5h[8:1],,6h[8:1]/4h[8:1],,7h[8:1]/5h[8:1],,4h[8:1]/6h[8:1],,
{8}3h[8:1]/5h[8:1],,6h[8:1]/4h[8:1],,7-3[8:1]/5h[8:1],,8h[8:1],,
{8}2h[8:1]/4h[8:1],,5h[8:1]/3h[8:1],,6h[8:1]/4h[8:1],,3h[8:1]/5h[8:1],,
{8}2-6[8:1]/4h[8:1],,8w4[8:1]/2,,8,,
{12}1/7,1/7,1/7,
{8}2/4,3/5,4/6,7/5,8/4,7/3,6/2,
{16}3,4,
{16}2/5,,1/5,,2/6,,3/7,,2,8,2,8,3,1,3,1,
{24}4,,4,5,,5,3,,3,6,,6,2,,2,7,,7,1,,1,8,,8,
{4}2bp5[16:3],4p7[16:3]*>8[32:5],,6x,
{32}5>2[8:1],6,7,8,,,,,
{16}5,,,,
{32}4-1[8:1],5,6,7,,,,,
{16}4,,8,8,
{8}2<7[8:1],,6h[4:1]/2,,
{32}5s1[8:1],4z8[32:3],3,2,,,,,,,,,,,,,
{32}2x,3,4,5,6z2[16:3],7,8,1,2,,,,,,,,4x,,,,5V38[16:3],,,,,,,,,,,,
{8}7x<4[8:1]*>2[8:1],,7s3[8:1],,1-4[8:1]*-6[8:1],,1x,,
{32}4V68[16:3],3,2,1,,,,,4,,,,,,,,1V75[8:1],2,3,4,,,,,1,,,,,,,,
{32}4,3,2,1,8,7,6,5,4w8[8:1],,,,,,,,4qq6[4:1],,,,,,,,6,,,,,,,,
{32}7x,8,1,2,3,4,5,6,7-3[8:1],,,,3-7[8:1],,,,,,,,,,,,1h[4:1],,,,,,,,
{32}6,5,4,3,2,1,8,7,6h[4:1],,,,,,,,2bz6[8:1],3/7s3[32:3],4/8,1/5,,,,,,,,,,,,,
{16}1/2>5[8:1],,3,,7>2[8:1]/2,,6,,5/7,,4V61[16:3],,3/5,,2h[8:1],,
{16},,2,2,3,3,4,4,5>2[8:1],,6/8,,1h[4:1],,,,
{8}8<5[8:1],7,8/3>8[8:1],2,3/5,6qq1[4:1],7/4,8x>7[16:5],
{8},8x,,2x,
{24}2-6[8:1],4,3,5,,,6/2,,,,,,
{16}8/7<4[8:1],,6,,2<7[8:1]/7,,3,,4/2,,5V38[16:3],,6/4,,7h[8:1],,
{16},,7,7,6,6,5,5,4<7[8:1],,3/1,,8-4[8:1],,,,
{8}1-6[8:1],2-5[8:1],1,2,7,8-4[8:1],1,8<5[8:1]*>3[8:1],
{16},,8w4[8:1],,,,8,,,,2/6,,1/7,1/7,1/7,,
{16}8x-3[16:1],,,2x-5[16:1],,,7x-4[16:1],,,1x-6[16:1],,,5x-2[16:1],,,8x,
{32},,,,7x,6,5,4,3,2,1,8,7,6,5,4,3,2,1,8,7,6,5,4,
{8}1-5[8:1],8-6[8:1],
{8}1,8,4>1[8:1],3,7<4[8:1]/4,8,1/7,2qq5[16:5],
{16}8/3,,2,,6,,7x,,6,5,7,,
{24}1w5[8:1],8,2,7,,,
{8}1,,6<1[8:1]/5,7,3<6[8:1]/6,2,3/1,8V25[16:3],
{16}1/7,,6,,7,,6,6,8,8,1,1,3<6[8:1]*>8[8:1],,4/5,,
{8},,6V42[16:3],7,8/6,1-5[8:1],,1w5[8:1],,
{32}1x,,,,,,,,1x,8,7,6,5,4,3,2,8x,7,6,5,
{4}1V35[16:3]/4V68[16:3],1b<2[1:2]/4b,Cf,,,
{4},,,E5,
{8},,5h[8:3],,,6h[2:1],,,
{8},7>5[8:5],,,,,E5,,
{8}1x,,1h[8:3],,,2h[2:1],,,
{8},3qq7[8:5],,,,,E5,,
{8}6x,,6h[8:3],,,7h[2:1],,,
{8},8V26[2:1],,,,,,,
{8}5x-3[4:3],5x-8[8:13],
E
