&title=ZYPRESSENの花束
&artist=monet
&first=-0.037
&des=川内野優美
&des_5=川内野優美
&lv_5=12+
&inote_5=(84){8},3qq5[2:1],,,,,,,,6pp4[2:1],
{16},,,,,,,,,,,,5,
4,{8}6pp4[2:1]/3qq5[2:1],{16},,,,,,,,,,,,4,
5,{8}4,5,3h[64:1],5,2/1,5,1b/8b,
{16}4,3,{8}2/1,2/1,3/8,,,1/2,3/8,
,8/7,8/7,6/1,,,8/7,6/1,
{16}1,2,{8}3/4,3/4,2/5,,,3/4,2/5,
{16}8,7,{8}6/5,6/5,7/4,{16}6,5,{8}4b/7b-5[8:1],,7/8,
1,2h[8:1]/7-5[8:1],,7/8,{16}1,2h[16:3],{8}7-5[8:1],,7/8,
1,2h[8:1]/7-5[8:1],,7/8,{16}1,2h[16:3],{8}7-5[8:1],,7/8,
{16}1,2,{8}3-1[8:1],,3/4,{16}5,6h[16:3],{8}3-1[8:1],,3/4,
{16}6,6h[16:3],{8}3-1[8:1],,3/4,,3-1[8:1],5,3/6,
7,8-6[8:1],,8/1,{16}2,3h[16:3],{8}8-6[8:1],,8/1,
2,3h[8:1]/8-6[8:1],,8/1,{16}2,3h[16:3],{8}8-6[8:1],,8/1,
{16}3,2,{8}1-3[8:1],,8/1,6h[4:1],1-3[8:1],{16},7,{8}1/8,
{16}6,7,{8}1-3[8:1],8,1/8,,1,{16}7,{48}6,5,,{16}4,5,
{8}4>1[8:1],8<5[8:1],4pp1[8:3],8,{4}4,{8}8pp3[2:1],7qq4[8:3],
{16}8,7,,,,,,,,,3,4,{8}3,5/2,
3,4>1[8:1],4pp8[8:3],4,{16}4,,,,,,,7/2,
8/1-4[16:1],8/1,{8}1-6[16:1],1-5[16:1],1,1,{16}1/8,7,5/6,7,8/1,2,
3/4,2,{8}1b/8b-6[8:1],{16}6,5,{8}8/3>1[8:1],1>5[16:3],3,,8-6[8:1],
6,8/1-3[8:1],{16}3,4,{8}1/6<8[8:1],8<4[16:3],6,,1-3[8:1],
3,1/8,{16}6<3[8:3],5h[16:3],,,{8}6,4,5,6,
7,8>3[8:1],,4/8<5[8:1],6,8/4,2,4/8-6[8:1],
{16}6,5,{8}8/3qq5[4:1],1,3/7,6,8-6[8:1],6,8/1-3[8:1],
3,1/6pp4[4:1],{16}8,7,{8}6/2,3,1-3[8:1],3,1/8-6[8:1],
6,8/1,{16}3>6[8:3],4h[16:3],,,{8}3,5,4,3,
2,5/1<6[8:1],3,5/1>4[8:1],3,1/5,7,{16}5/1,4,
3-7[16:1],2,{8}1-5[16:1],3,1,{16}8w4[16:1],8,,,{8}8,5/2pp5>1[8:3],
1/6,2/5,1<2[4:1],6,,8xw4[16:1],,8,
{64},,,,,,,,4x,5x,6x-2[16:1],7x,{16}8x-4[16:1],,,6,8,1w5[16:1],1,,,{8}1,4/7qq4<8[8:3],
3/8,7/4,8>7[4:1],3,,1xw5[16:1],,1,
{32},,,,3,5,3,5,3,5,3,5,2,6,2,6,2,6,2,6,1,7,1,7,1,7,1,7x,8x,8x,8x,8x,
{8}8bx,1-3[8:1],3,1/8,7,8-6[8:1],5-8-3-6-2-5b[4:3],8,
5,,,,,,,8-6[8:1],
6,8/1,{32}3xpp5pp7pp1pp3[8:5],4x,5x,6x,7x,8x,1x,2x,{8}3x,8,7,6,
{4}5-1[8:1],{8}5<5[8:3]*<5[8:3],5,{2}Cf,
{8}4>1[8:1],8<5[8:1],4pp1[8:3],8,{4}4,{8}8pp3[4:3],7p4[8:5]*p4[8:5],
8`7,,,,,,,4/3,
2>4[16:1],7<5[16:1],2,7,{16}5h[4:1]/4h[4:1],,,,,,,2/7,
8/1>4[16:1],8/1,{8}1<6[16:1],1w5[16:1],1,1,{16}8/1,2,3/4,2,1/5,2/6,
7/3,8/4,{8}5b/1b-3[8:1],{16}3,4,{8}1/6<8[8:1],8<4[16:3],6,,1-3[8:1],
3,1/8-6[8:1],{16}6,5,{8}8/3>1[8:1],1>5[16:3],3,,8-6[8:1],
6,8/1,{16}3>6[8:3],4h[16:3],,,{8}3,5,4,3,
2,1<6[8:1],,5/1>4[8:1],3,{16}5/1,6,7,8,5/1,4/8,
3/7,2/6,{8}5/1-3[8:1],{16}3,4,{8}1/7<4[8:1],8,7,{32}8,7,6,5,{8}4/8-6[8:1],
6,8/1-3[8:1],{16}3,4,{8}1/6<1[8:1],5,6,{32}5,6,7,8,{8}5/1-3[8:1],
3,1/8,{16}6<3[8:3],5h[16:3],,,{8}6,4,5,6,
7,4/8>3[8:1],2,4/8<5[8:1],6,{16}8/4,3,2,1,8/4,5/1,
2/6-2[16:1],3/7,{8}4/8-4[16:1],6,8,{64}5/2,1/6,{32}8h[32:3]/7h[32:3],,,,,,,{8}1>4[16:1],{16}6,7,
{64}1/8,7,{32}6,{16}5h[16:3],,,{8}2,1/6,{64}8/7,6/1,2/5,4h[64:13]/3h[64:13],{4},{16},{8}2/5,
6/1,8/7-5[8:1],5,7/8,{16}3,4,2-8[8:1],4,{8}3,2/4<7[8:1],
5,4/3>8[8:1],2,3/4pp8[4:1],5,4/3,2,4h[16:3],
{64}8x,7x,6x,5x,,3x,2x,1x,8x,7x,6x,5x,4x,3x,2x,1x,8x,7x,6x,5x,4x,3x,2x,1x,8x,7x,6x,5x,4x,3x,2x,1x,8x,7x,6x,5x,4x,3x,2x,1x,8x,7x,6x,5x,4x,3x,2x,1x,8x,7x,6x,5x,4x,3x,2x,1x,8x,7x,6x,5x,4x,3x,2x,1x,
8x,7x,6x,5x,4x,3x,2x,1x,{8}8/4>1[8:1],3,4/5,{16}7,8,7-5[8:1],8,{8}7,7/1>4[8:1],
3,8/1,{16}6,5,6-8[8:1],4,6,3,{8}6/2-4[8:1],4,1/2,
{16}6,5,7,4,6,5,{8}7,{16}6,5,{8}7b/4bpp4[8:1]*qq4[8:1],,4,
,4h[8:5]/5h[4:3],,,,,,,,6h[4:3]/4h[8:5],
{16},,,,,,,,,,,,5,
4,{8}3qq5[2:1],{16},,,,,,,,,,,,4,
5,{8}6pp4[8:7],{16},,,,4,3,{8}2bpp8[8:3],
E
