&title=アイディスマイル
&artist= 25時、ナイトコードで。
&first=0.47
&des=您
&lv_5=13+
&inote_1=
&inote_5=(171){8}2,2,{4}2,{8},3/4,,5/4,
,,,6h[8:3],,,{4}5,
{8}7,7,{4}7,{8},7/8,,1h[2:1]/8h[2:1],
,,,,,8,7,6,
5h[4:1],,,,,,,3-8[4:1],
,8-3[4:1],,3,,6,5,4,
3h[4:1],,,,,5pp5[4:1]*qq5[4:1],4,5,
,,,1h[8:1],2,6h[8:1],7,3h[8:1],
4,,,,,8-5[8:5],,1,
,2,,3,,,,4,
{4}3-1[8:1],{8}5,6-8[8:1],,2h[4:1],,7h[4:1],
,1pp4[2:1],8qq5[8:3],,,,,,,8/1,
7/2,6/3,5b/4h[4:1],5,{4}5,
{8}3qq6[4:3],6,3,7h[4:1],,,,,,7,
2,8,{2}1h[4:1]/3qq8[2:1],
{8},7,6,5-8[8:1],4,5,,1-5[16:1],
7-3[16:1],1pp4[8:3]*qq6[8:3],{4}7,,,
{8}4/8,4h[8:1]/8h[8:1],,3h[8:1]/7h[8:1],,2pp5[8:3]/6pp1[8:3],,2/6,,
,,7h[4:1],{4}2h[4:1],{8}6h[8:3],3h[4:1],
,,,4/5,{4}4/5,1/8,
{32}8b,7,6,5,,,,,1b,2,3,4,,,,,{4}5h[8:1]/4h[8:1],{8}3/6,3h[8:1]/6h[8:1],
,2/7,{4}2h[4:1]/7h[4:1],{8},,8pp5[1:1],1,
{8}8b,,,4,,3,3h[4:1],,,,,1/8,
2h[8:1]/7h[8:1],,2/7,
6h[8:1]/3h[8:1],,6/3,4h[4:1]/5h[4:1],,,,{4}4,
5,6<4[4:3],{8}6,,,5,
6,,,7,{2}8bV24[8:1]*V64[8:1],
{8},3/7,{4}7-3[8:1]/3>6[4:1],3/7,{8}4,4-2[8:1]*-7[8:1],
,4,,8V61[4:1],8,1-5[8:1],,4b,
{4}2b,{8}6/1,7/2,{4}3/8-5[8:1],{8}2,1,
{4}8-3[8:1],{8}6,7,{4}8w4[8:1],8,
2-5[8:1]/6-8[8:1],2/6,{8}2/1,2/1,1-5[8:1]/8-6[8:1],1/2,
{4}1/8,{8}1-5[8:1]/8-6[8:1],1/2,{4}1/8,4>1[8:1],
4-8[8:1],4<4[2:1],4,{8}5-8[8:1],6,
{4}5,{8}1/2,7h[8:1]/4h[8:1],,3h[8:1]/6h[8:1],,2h[8:1]/5h[8:1],
,1/6,{4}1-5[8:1]/6-8[8:1],1/6,{8}4,4>8[4:1],
,8<4[4:1],,4,,7,{4}7-3[8:1]/3-7[8:1],
3/7,{8}8/4,1,{4}2/5qq5[4:1]*pp5[4:1],{8},,
,2h[8:1]/1h[8:1],,8h[8:1]/3h[8:1],,7/5,6/4,5/3,
4/2,1,{4}1b/8b,6/5,2-6[8:1]/8-6[8:1],
2/8,{8}3/4,7-3[8:1]/1-3[8:1],,7/1-5[8:1],,1/7,
{4}7>2[4:1],2>5[4:1],{8}5<1[8:3],,,1-4[8:1],
1-6[8:1],,,5b,,3,2/5,6,
7/3,2,1/6,7,{4}8-4[4:3],2,
2,2,2,2,
1-5[4:3],6,6,6,
6,7-3[4:3],4,4,
4,4,2-5[4:3],3,
3,3,3,3,
{8},,7<7[2:7]*<7[2:7],1,{4}7-5[8:1],
{8}7,2,,2,5v3[8:1],,5,,2,3,
{4}4,{8}4,3b-1[8:1],,5,4h[4:1],,
{4}3h[4:1],2h[4:1],{2}1<7[8:1],
{8},,,,,,4h[4:1]/5,,
6h[8:3],,4,3h[8:7],,6,{4}7h[2:1],
{8},,,,2b/8,7,6,4/5,
3,2,1/8,7,6,5/1,2,3,
4/8,5,6,7/3,8,1,2/6,3,
4,5/6,7,8,1/5,8,7,6/2,
5,4,3/7,2,1,8/4,7,6,
5/4,3,2/1,8,7/6,5,4/2b,1,
7b/8,6,5/4b,5b/4,{4}6h[8:1]/2h[8:1],{24}1,5,1,5,1,5,
1,5,1,5,1,5,1,5,1,5,1,5,{4}1b,2/6,
3/7,
{8}4,8b,{24},,,,,,8,4,8,4,8,4,
8,4,8,4,8,4,{4}8b,{8}8h[4:1]/1h[4:1],,,
2h[4:1]/7h[4:1],,,3h[4:1]/6h[4:1],,,4h[4:1]/5h[4:1],,,
{8}5b/4b,,,3b/6b,,,{4}2b/7b,1,8,7,2h[8:5]/6h[2:1],,
{8},6,2,7,
{4}1bw5[4:7]/8b,,,,,,,,,,,,,,,2/6,1pp3[8:1],5pp7[8:1],8w4[8:1],,2b/6b,,
{8},1/7,2q6[8:1]/6<3[4:1],3/5,2b/6b,,5,5v2[8:1]*-7[8:1],,5,,1V38[4:1],1,8V26[4:1],,3b,7b,,3/8,2/7,1>4[8:1]/6,,5,7,1<6[8:1],,5,3,1w5[8:1],,1,,3>1[8:1]/7v4[8:1],,3/7,,7/8,7/8,1>3[8:1]/8q4[8:1],8/7,1/8,,1>3[8:1]/8q4[8:1],8/7,1/8,,
5-8[8:1]/6,,4-1[8:1]/5,,4/3>6[8:1],,8h[4:1],,4>5[4:1],6/3,2/4,,1,7h[8:1]/3h[8:1],,2h[8:1]/6h[8:1],,1h[8:1]/5h[8:1],,8/4,8-3[8:1]/4-7[8:1],1/5,4/8,,5,4/6<2[4:1],,2>6[4:1],,6,,3,3-7[8:1]/7-3[8:1],,3/7,,4/8,5,6/1qq1[4:1]*pp1[4:1],,,,,5h[8:1]/6h[8:1],,7h[8:1]/4h[8:1],,3/1,2/8,1/7,
8/6,5,5b/4b,,
{8}1-5[8:1]/7<5[8:1],,1>3[8:1]/7-3[8:1],,1/7,,4/5,2-6[8:1]/8<6[8:1],,2/8-4[8:1],,2/8,3<6[4:1],,6<1[4:1],,1>5[8:3],,,5-8[8:1],5-2[8:1],,,1b,,7,4/5,2,4/5,8,4/5,1,6/2>5[8:1],,2/7p3[8:1],,7/1w5[8:1],,1b,,3-1[32:11]/7V15[8:7],,,,,,,,,,
