&title=DA'AT -The First Seeker of Souls-
&artist=水野健治 VS 大国奏音
&first=0.07999999
&lv_5=14+
&des_5=江予凌
&inote_5=
(111){4},,,,{1}6h[8:7]/5>7>4[2:3],
{2}5h[8:3],7h[8:3],
{4}8h[4:1],5h[4:1],6h[4:1],2h[4:1],
4h[4:3],{8}B3,B5,B6,B7,B1,B2,
{1}3h[8:7]/5<2<5[4:5],
{4}4,3,{2}1h[8:3],
4-8[8:3],{4}3,5,
{8}8h[2:1],{24}D7,A6,D6,A5,D5,A4,D4,A3,D3,{4}2xh[4:1],{8}7h[8:1],4h[8:1],
{1}Ch[8:7],
(222){4}2-5[12:1],2/8x,7h[4:1],5>2[12:1],
5/6x,8h[4:1],1-5[12:1],1/7x,
6h[4:1],{8}4,7/3,{2}8x/2x-6[12:1],
{4}7x-4[12:1],8x/7,2h[4:1],4x<7[12:1],
4/3x,2h[4:1],8x-4[12:1],8/3x,
2h[4:1],{8}3x,4/1,{2}8x-4[12:1]/5x-1[12:1],
{8}8x/3x,8,8,8x/5x,8,8,8,8x/E2/B2,
8,8,8,8x/E7/B6,8,E3/B3/8x-4[12:1],,Cf,
,2/5,3,4/6,4,7/3,6,3/5,
2,1/6,7,3qq8[24:11]/7qq4[24:11],,,,,{1}Cf,
{8},,,4h[2:1]/5h[2:1],,,,,{4}6-8[12:1],
4/6-4[12:1],2/6-1[12:1],3/6,
8/2-5[12:1],5/2-8[12:1],2/7,{8}8/7,8/7,
{4}6/1-3[12:1],5/1-5[12:1],1/6-1[12:1],6/3-6[12:1],
3/7-4[12:1]*-2[12:1],7,{8}3/5,2,{16}1/4,5,6,7,
{4}8-5[12:1],8/3-8[12:1],3/6-3[12:1],6/1,
2/4<7[16:3],{16}4/8,1,2,3,{8}4-8[12:1],4,7-3[12:1],7,
{4}1>4[12:1],6/1<6[12:1],3/1-5[12:1],1/5,
{8}8,{16}8,7,{8}6h[16:3],{16}1,2,{8}3h[8:1],{16}5,4,3,2,1,8,
{8}7b-4[12:1],3h[16:1],7,2,5-8[12:1],1h[16:1],5,3,
1-6[12:1],4h[16:1],1,2,4-7[12:1],1h[16:1],4,2,
8-4[12:1],7,3-8[12:1],2,5-1[12:1],6,2-6[12:1],3,
8,8,{16}7,5,7,5,{8}7-4[12:1],3,7,2,
2b-6b[12:1],5h[16:1],2,7,4b-1b[12:1],8h[16:1],4,6,
8b-4b[12:1],5h[16:1],8,6,3b-8b[12:1],7h[16:1],3,5,
{4}6bh[6:1],{8}1/2,8b/3bh[24:5],{16},,6,5,{8}6,7b/4,
{16}3b,1,3,1,2b,8,2,8,{32}1b,2,3,4,5,6,7,8,1,2,3,4,5,6,7,8,
{1}1/B5/B4/Cf,
{2},,(111)5h[4:1]/4-8[12:1],
{4}2/6V48[6:1],1h[4:1],
{8}7,6/8,{4}1/5h[4:1],2V48[6:1],6h[4:1],
{8}1,2/8,{4}7/3h[4:1],{8}5-2[32:3],2V48[8:1],{4}1h[8:1],
{8}1-5[12:1],2-4[12:1],1,2,{16}6h[8:3],,,4,{4}4>5[32:7],
{32}E4,E3,E2,E1,E8,E7,E6,E5/Cf,,,,,,,,,{8}4/6h[4:1],{16}5,5,{8}3,4,
6/3h[4:1],{16}5,5,4,4,{8}6,4/7h[4:1],{16}5,5,{8}4,3,
{2}2V48[6:1]/5V37[6:1],{8}1/6,3/7,{16}8/4,7,6/2,{32}2,3,
{16}5/4,6,3/7,2,8/1,{32}7,6,{16}3/5,2,{32}1,4,1,4,1,5,1,5,1,6,1,6,1,7,1,7,
{48}1b,2,3,4,5,6,7,8,1,2,3,4,{64}5/8b,7,6,5,4,3,2,1,8,7,6,5,4,3,2,1,(222){4}8-4[8:1],8/2,
{8}2-5[8:1],5V31[16:3],{4}2,7v4[8:1],7/8,
2V46[8:1],{8}2/6,7,{4}8<5[8:1],8/4,
2>5[8:1],2/4,7-5[16:1]*-4[16:1],7-1[16:1]*-2[16:1],
7-3b[8:1],{8}7/3x,4,{4}5xV31v4[2:1],8,
6,7,8V64v7[2:1],4,
2,{8}3,3,{4}4>1[8:1],E4/B3,
5<8[8:1],E6/B6,{8}1-5[16:1],1,4-8[8:1],4,
{2}2-7[16:1]*-5[16:1],{16}4bx,6,3,7,2,8,1,7,
2b,6,3,5,4,6,4,6,{8}4bxh[8:3],,,B6/B5/B7/B8,
,,,,7,7,{32}1b,2,3,4,7b,6,5,4,
{8}1,1,{32}8b,7,6,5,2b,3,4,5,{8}8bxh[8:3],,,B1/B2/B3/B4,
,,,,{2}6<3[4:5],
1,4h[2:1],
{8},,5,4,{2}3>6b[4:5],
8,5h[2:1],
{8},,,,3/5,6/2,7/1,{24}7b/1b,6,5,
{4}4,{8}6/4,3/7,2/8,{24}2b/8b,3,4,{4}5,
{32}8/7b,6,5,4,,,,,1/2b,3,4,5,,,,,{8}7b/8b,1/6,2/5,{24}2b,3,4,
{4}5/6,{8}1b/2b,8/3,7/4,{24}7b,6,5,{4}4/3,
{24}7b/8b,6/1,5/2,4/3,,,1b/2b,3/8,7/4,5/6,,,{4}Cf,{16}5,4,5,4,
5,3,5,3,5,2,5,2,5,1,5,1-5b[8:1],5,1,5,1b,
,,,,{8}6,7-4[12:1]/3-8[12:1],,3b/7b,,,,,{4}2h[4:3],
,6h[4:1],
,1>4[8:1]/5v8[8:1],5/1,5-1[8:1]/7<4[8:1],
7/5,8q4[16:1],6<1[16:1],5>2[16:1],
{8}8-4[16:1],8,{4}1,2/5,{16}3,4,{8}3,
5/2>5[16:3],2/5,{16}5/2,6,7,8,6,7,8,1,{8}2-5[16:1],4,
7-3[16:1],6,{4}5>8V24[2:1],8,4-8[8:1],
7,{8}6-1[16:1],5,2>5[16:1],3,8-4[16:1],7,
3,3,{4}2p6[16:1],4>1[16:1],5v2[16:1],
7<4[16:1],{8}1,1,{16}2,4,2,4,2/5,6/3,7/4,8/5,
{24}6,7,8,1,2,3,{8}4/8b,{16}6,5,{8}7,1b,{16}3,4,{8}2,
8b/7b<4[16:3],6/1,{16}3,2,1,8,3,2,1,8,{8}7-4[16:1],3,
2-6[16:1],5,{4}7<4[16:1],1/A7/B7,3>8[8:1],
5/A3/B3,7-3[8:1],3-7[8:1],{8}B1/B2,B4/E5,
{16}8,5,8,5,4/7x,6,5,4,1/5x,6,7,8,3/7x,6,5,4,
1/5x,6,7,8,4x/1,3,2,1,5/2x,3,4,5,8/4x,3,2,1,
6/2x,3,4,5,{8}6/7,6/7,8/5,5/8,4/1,4/1,
3/2,3/2,{16}1,4,1,4,1,4,1,4,8-4[16:1],5,8,5,
{4}8b,{8}7<4[16:1],7,3v8[16:1],3,{16}4,5,6,7,
1,2,3,4,{8}5-1[16:1],5,7<4[16:1],7,{16}8,1,2,3,
5,6,7,8,{8}1<6[16:1],1,4v1[16:1],4,{16}5,6,7,8,
2,3,4,5,{8}6>3[16:1],6,8-4[16:1],8,{16}2,1,8,7,
4,5,6,7,{4}8bh[4:3]/E4f/B4/E5,,,,3bh[4:3]/E7f/B7/B6,
{8},,,,,,7,
6/5,2,3/4,7,6/4,
2,3/5,8/4,7,5/1,2,{4}3-8[16:1]/7-4[16:1],
7/3,{16}2b,4,3,4,2b,5,4,5,1b,4,3,4,
{8}2b,8b,{16}7b,5,6,5,8b,4,5,4,7b,3,4,3,
{24}6b,5,4,3,2,1,{16}8b,5,6,5,8b,4,5,4,7b,3,4,3,
{8}8b,2b,{16}3b,5,4,5,1b,6,5,6,{12}2b,2,2,
7b,7,7,4b/3b,{24},{8}4/3,5b/2b,5/2,1b/6b,6/1,
{16}7b,8,{8}7,2b/1b,1/2,3b/8b,3/8,7b/4b,7/4,
6b/2b,6/2,5/1b,{16}2,4,{8}3,2/5,3/8b,{16}7,5,
{8}6,4/8,{16}2b,1,2,1,2,1,2,1,2bh,3,4/1bh,8,
7/3bh,4,5/8bh,7,{4}6/Cf,,,,3-8[16:1]/7-4[16:1],
7/3,{8}1/5,5/1,
{4}2-5[16:1]/6-2[16:1],6/2,{8}8/4,8/4,{4}3v8[16:1]/7<4[16:1],
7/3,{8}1,1,2/4,3/5,{4}4/6-2[16:1],
6/3,1-5[16:1]/4-2[16:1],4/1,{8}1/6,6/1,
{4}2-6[16:1]/4<7[16:1],2/4,{8}8/5,8/5,{4}7-2[16:1]/3-6[16:1],
3/7,{8}1,1,2/8,7/3,{4}6/4-8[16:1],
,2b-5[16:1]/6b-1[16:1],2/6,{16}8,4,7,3,
{4}6bv1[16:1]/2b-5[16:1],2/6,{16}8,4,7,3,{4}6b-2[16:1]/2b-5[16:1],
2/6,{16}7,4,6,3,{8}2/5,2/5,{4}1b-5[16:1]/6b-2[16:1],
6b/1b,7b-4[16:1]/3b-8[16:1],7b/3b,{16}1,5,2,6,
{4}3bv8[16:1]/7b-4[16:1],7b/3b,{16}1,5,2,6,{4}3b-7[16:1]/7b-4[16:1],
7b/3b,{16}2,1,3,8,{8}4b/7b,5b/6b,{4}2b-5[16:1]/1b-6[16:1],
1/2,Cf,{1},{4},{24},8xh[3:4],
{1},{4},{24},{8}5,
{24},,4,,,,,3,,,,,{12}7,6,5,
6,5,4,5,4,3,4,3,2/5,6,7,4,
5,6,3,4,5,2,3,4,1,2,3,8,
(111){24}1,2-6[24:11],{4},,,{16},,,{48},{24}7h[24:35]/3h[24:35],
E
