&title=恋愛したいっ!
&artist=藤女学生会执行部
&first=0.04
&des=LTCalter
&clock_count=4
&lv_5=13
&inote_5=(182)
{1},,,
{4}4bqq4[8:12]*pp4[8:12],,,,,,,,
3qq5[8:6],,,,
{8}7pp4[8:5],,,,,,3<7[8:4],,
2,,2,,2,,1>5[8:4],,
8,,8,,7p3[8:1],,,,
2-5[8:1],1-6[8:1],2,1,,8w4[8:1],,8qq8[8:3]*pp8[8:3],
,,,,,,2b/6b,,
1s5[16:4],,5,,6,7h[8:2],,6pp5[16:5],,5,4,3qq4[16:5],,,5,,
7,,7V51[8:2]/2V48[8:2],,,,,2^5[16:2],,1,8,7-3[16:2],,8,1,,
2-5[8:1],3h[8:2],,,1-6[8:1],2,,3qq5[16:5],
,6,6,,7bpp4[16:6],,,,3-8[8:1]*-6[8:1],,,,
15,,2,4pp1[8:3],,3,3,,2v3[8:1],,,,
8h[8:6],,6,,6,,6,5,
4h[8:6]/6,,5,,3,,2,,
8h[8:6]/2,,1,,7,,6,,
54,,6h[8:1],5,,2-5[8:1]/4-1[8:1],,{16},,
,,7-2[8:1]/8-5[8:1],,,,,,,,3p6[16:3],,,,6,,
8h[8:3],,,,5,,3,,,,1-4[8:1]/2-4[8:1],,,,2,,
,,6-1[8:1]/5-1[8:1],,,,6,,,,2,,3,,8-4[8:1]/4-8[8:1],,
,,84,,,,2b/6b,,,,3b/7b,,,,
8h[8:2]/4,,,,2,,4h[8:1],,3h[8:1],,7h[8:1],,5h[8:1],,6,,6,,
2h[8:1],,4h[8:1],,1h[8:1],,7h[8:1],,5h[8:1],,8h[8:1],,3,,3,,
1-5[8:1],,1,,4,,3,,2-6[8:1],,2,,6,,7,,
8-5[8:1],,5-1[8:1]*-2[8:1],,8,,,,,,
3-5[8:1]/7-4[8:1],,,,3,,
,,1-5[8:1]/7-4[8:1],,,,7,,,,2-7[8:1],,,,6-3[8:1]/2,,
,,1v8[8:1]/6v7[8:1],,,,1-4[8:1]/6,,,,,,6,,7>3[8:2],,
,,3<7[8:2],,,,7q5[8:2],,,,1,,2qq7[8:4],,3q6[8:3],,
,,,,,,,,,,,,8b/1b,,,,
2qq5[8:3],,,,,,6,,6,,,,7,,,,1V73[8:2],,,,,,5s1[16:3],,5,,,,,,,,
2h[8:2],,,,4h[8:2],,,,5h[8:2],,,,7h[8:2],,,,
1^4[8:1],,1^6[8:1],,,,,,2,,2V84[8:2],,,,28,,
,,6,,6,,3,,4,,1/5V71[8:2],,1,,5,,
,,2,,3,,8,,7,,65,,2-5[8:1]/8,,,,
6-3[8:1]/2,,,,1h[8:2]/6,,,,4h[8:1],,2h[8:1],,6h[8:1],,5h[8:1],,
8p3[16:3],,,,3,,,,1h[8:2],,,,4,,1,,
24,,3,,56,,7,,84,,2,,17,,6,,
8b<3[8:3]/5bpp2[8:3],,8b/5b,,,,,,,,,,1b,,,,
8-5[8:1]/3-5[8:1],,,,83,,,,2^5[8:1],,2,,1v6[8:1],,1,,
3,,3h[8:2],,1,,8,,7-3[8:1],,4,,7qq7[8:2]*pp7[8:2],,,,
,,,,,,,,1-5[8:1],,1,,7,,6,,
2-5[8:1],,5V73[8:2],,2,,8h[8:2],,,,,,8,,7,,
6^1[8:1]/1v4[8:1],,61,,,,,,7^2[8:1]/2v4[8:1],,72,,,,,,
3^6[8:1],,6<4[8:2],,3,,8h[8:2],,,,,,8,,7,,
26,,3,,74,,6p5[8:3]/5>6[8:3],,,,,,,,,,,,
1w5[8:1],,,,1,,,,73,,1b/5b,,,,
8-5[8:1]/3-5[8:1],,,,83,,,,7^4[8:1],,7,,8v3[8:1],,8,,
6,,6h[8:2],,8,,1,,2-6[8:1],,6,,2/8p3[8:1]*q5[8:1],,,,
8,,,,26,,,,75,,,54,,,24,,
1q7[8:2],,,,7,,6V42[16:3],,,,8,,8,,8,,
1-5[8:1],,,,1,,7pp4[8:3],,,,5,,4,,3,,
2^7[8:1],,,,2,,6pp5[16:5],,,,1,,2,,3,,
4-1[8:1],,5-8[8:1],,4,,5,,,,3^8[8:1]/6^1[8:1],,,,3qq5[8:4]/6pp4[8:4],,
,,,,,,,,,,,,2b/7b,,,,
{8}1s5[16:3],,5s1[16:3],,6,,7,7,
8-5[8:1]/2-5[8:1],,8qq1[8:2]/2pp1[8:2],,82,,,,
5-7[8:1]/4-2[8:1],,5-1[8:1]/4-8[8:1],,45,,27,
1^4[16:2],,81,7,6qq4[16:2],,8,1,,
2-5[8:1],3h[8:2],,,1-6[8:1],2,,3qq5[16:5],
,6,6,,7bpp4[16:6],,5,4,3^8[8:1]*^6[8:1],,3,,
15,,2,4pp8[8:3],,3,3,,2v3[8:1],,,8qq8[8:3]*pp8[8:3],
