&title=Never Forget That Rainbow
&artist=大豆使徒(打打だいず+seatrus)
&first=0.052
&des=Never Forget THAC Stellaris
&lv_5=14+
&des_5=Never Forget THAC Stellaris
&inote_5=
(210){4},,,,{32}8bxh[1:7]/1bx<1[4:27],
B1,C,B5,{1},,,,,,,{4},{16},,2b/5b,
3/6,4/7,5/8,6,7,8,1,
{8}6bxh[4:1]/2bxh[4:1],,,2bxh[8:11]/6bxh[4:1],,,5-8<6-3[4:3],5,
,,,,,,,,3bxh[4:1]/7bxh[4:1],
,,7bxh[8:11]/3bxh[4:1],,,4-1>3-6[4:3],4,
,,,,,,,,8bxh[4:1]/4bxh[4:1],
,,6bxh[8:11]/2bxh[4:1],,,2-5>3-8[4:3],2,
,,,,,,,,8bxh[4:1]/4bxh[4:1],
,,2bxh[8:7]/6bxh[2:1],,,,,{2}Ch[2:1],
{16}1,2,3,4,8,7,6,5,
{8}4/3,{16}2-5[8:1],5,{8}1,2/6,,8,7,6<1[4:1],
{16},,6/1,2,3,4,{8}5,{16}8,7,6,5,4,3,2,1,
{8}8/4,{16}7-4[8:1],4,{8}6,7/3,,1,2,3>8[4:1],
,8/3,7,6,5-1[8:1],4-8[8:1],5,4,
{16}7,6,5,4,1,2,3,4,6,7,8,1,4,3,2,1,
8/4,5,6,7,8/4,1,2,3,4/8,1,2,3,4/8,5,6,7,
8x,4,8x,4,1,5,1,5,2,6,2,6,3,7,3,7,
{24}2,3,4,8,7,6,2,3,4,8,7,6,1,2,3,7,6,5,1,2,3,7,6,5,
{4}Cf,{8}6h[16:1]/1-5[8:1],6h[16:1],1/6h[16:1],6h[16:1],6h[16:1]/2-4[8:1],6h[16:1],
2/6h[16:1],6h[16:1],6h[16:1]/1h[16:1],6h[16:1]/1h[16:1],6h[16:1]/2h[16:1],6h[16:1]/3h[16:1],4h[16:1]/6h[16:1],6h[16:1]/5h[16:1],
{4}6b/Cf,{8}2/6,{16}3,5,{8}3,7/1,{16}6,4,6,4,
{8}7,1/8,2/7,6/4,{16}7/3,4,5,6,7,8,1,2,
{4}3b/7b,{8}E8/B7/B8,A3,A6,B2/B1/E2,{16}B8,B7,B6,B5,
{8}B4/E4,B7/B8,{16}B1,B2,B3,B4,{8}E6/B5,B8/B7,{16}B1,B2,B3,B4,
{4}7bx/B5f/E6f,{24}7b,6,5,4/3h[8:3],,,{8}E7/B7/B6,B2/B3/E3,{4}C,
{8}2/5,{16}3,4,{8}2,7/8,1/2,3/8,4/7,5/6,
{4}Cf,{8}3/4,3,{16}1/2-5[8:1],,,1,{8}2,8,
{16}8/7-4[8:1],,,8,{8}7,1,{16}2h[16:3],,,1,{8}1,2/8,
{4}3b/7b,{8}2/5,{16}3,4,{8}3,6/5,7/4,{16}6,5,
{8}7,8/3,1/7,1/7,{16}6/2,5,4,3,2,1,8,7,
{8}2bh[4:1]/6bh[4:1],,,2bh[2:1]/5bh[2:1],,,,,7bh[4:1]/3bh[4:1],
,,7bh[8:3]/4bh[8:3],{16},,,,,,,,2b/E6,
,,7b/E4,,,{8}3b/E8,{16},6b/E2,,,3,4,3,4,
{4}3h[4:3],E4,C,E8,
{16}6/2-5[8:1],,,8,{8}2,7,6h[4:1],{16}3,2,{8}1,8/7,
{16}1-5[8:1],2,{8}3-5[8:1],1,3,8,{16}8,7,{8}1/6,5,
{16}2,3,4,5,2,3,4,5,1,2,3,4,1,2,3,4,
{4}1h[8:1]/5h[8:1],2h[8:1]/6h[8:1],3h[8:1]/7h[8:1],4h[8:1]/8h[8:1],
{16}3/7-4[8:1],,,1,{8}7,2,3h[4:1],{16}6,7,{8}8,1/2,
{16}8-4[8:1],7,{8}6-4[8:1],8,6,1,{16}1,2,{8}8/3,4,
{16}6,5,6,5,{8}6,4/7,8/3,8/3,1/6,1/6,
{4}4h[8:1]/3h[8:1],6h[8:1]/5h[8:1],2h[8:1]/3h[8:1],7h[8:1]/6h[8:1],
{1}2bh[8:7]/Cf,
{2}7bh[8:3]/Cf,{16}4bh[4:1],,,8bh[16:1],{48},,,,,,{24}4bx/8bx,3/7,2/6,
{4}5/1-5[8:1],{16}1/5,6,7,8,1/4,3,2,1,8/5,6,7,8,
{4}1-5[8:1]/3<5[8:1],1/3,8-4[8:1]/6>4[8:1],8/6,
{16}6<1[8:1],,,5,,,{8}4,{16}3>8[8:1],,,4,,,{8}5,
{16}7V53[8:1],,,8,,,{8}1,{16}2V46[8:1],,,1,,,{8}8,
{1}7bh[8:7],
{2}2bh[8:39],8,
{32}8bx<8[1:3],B8,Cf,B4,{1},,,{4},{16},,B6,
B5,B4,B3,B2,B1,B8,B7,
{1}B6/3x>7-5q3[4:13],
,8xh[2:1],
7xh[2:1],
6x<2-4p6[4:13],
,1xh[2:1],
2xh[2:1],
{4}2/6,3,3h[4:1],{8}4,4h[8:1],
3,4,{4}3,{2}4h[4:1]/3h[4:1],
{4}7/3,6,6h[4:1],{8}5,5h[8:1],
6,5,{4}6,{2}6h[4:1]/5h[4:1],
{4}6/3,4,4h[4:1],{8}5,5h[8:1],
4,5,{4}6/3,5/4,1/6,
{16}2,5,2,5,3,6,3,6,4,7,4,7,4,8,4,8,
5,7,5,7,4,6,4,6,3,5,3,5,2,4,2,4,
{24}1h[48:1],2h[48:1],3h[48:1],6,{48},{16}5,7,4,7,4,{24}8h[48:1],7h[48:1],6h[48:1],3,{48},{16}4,2,5,2,5,
{24}6/1h[48:1],2h[48:1],3h[48:1],4h[48:1],,,3/8h[48:1],7h[48:1],6h[48:1],5h[48:1],{96},,,,,,,,{32}2h[64:1],3h[64:1],{16}4h[64:1],{32}8h[64:1],7h[64:1],{16}6h[64:1],{32}1h[64:1],2h[64:1],{16}3h[64:1],{32}7h[64:1],6h[64:1],{16}5h[64:1],
{2}1-5[2:1],7h[1:1],
{4}3h[2:1],,,6-3[8:1]/1-4[8:1],
6b/1b,{16}6,7,8,1,{8}3-7[8:1],3,4-8[8:1],4,
{4}2>5[8:1],2/6-1[8:1],6/2w6[8:1],2,
8/3h[4:1],{16}1,8,7,6,{8}1-5[8:1],1,4<7[8:1],4,
{4}8-3[8:1],8/2-6[8:1],7-4[8:1]/2-8[8:1],2/7,
1>5[4:1],{12}1/6,7,8,1x,8,7,6/2b,,,{4}8<4[4:1],
{12}8/3,2,1,8x,1,2,3/7b,{24},,,,{8}4-8[8:1],
7h[8:3],{4}4,{24}1,2,3,4,5,6,1,2,3,4,5,6,
{4}7/8-4[8:1],8/5-1[8:1],5,{24}8b/2b,3/7,4/6,5,,,{4}2h[4:1],
{16}7,4,6,5,8,3,6,5,8,3,7,4,
{4}1h[4:1],{24}5b,4,3,2,{48},,,,{16}7bh[8:1]/8bh[8:1],,,4bh[8:1]/5bh[8:1],,,{8}1b/2b,
{4}7/3>8[8:1],{16}7,6,5,4,{4}3-7[8:1],{16}8,1,2,3,
{4}4v2b[8:1],{16}1,8,7,6,{4}5pp6b[8:1],{16}1,2,3,4,
{4}5-2-4[4:1],{8}5/6,7,{4}8-4[8:1]*-6[8:1],8>3[8:1],
8/5-2[8:1],5/4,1/3,{8}2/8,7/1,
6v1[8:1],6,{4}2b,{8}3v8[8:1],3,{4}7b,
{16}1,6,1,6,{8}1,5/2,{24}3,4,3,4,{48},,,,{16}1,8,1,8,
{4}2-5[8:1]/7-4[8:1],7b/2b,{16}3,2,1,8,{8}6-8[8:1],6,
{4}1-5[8:1],1/2-4[8:1],2/7-3[8:1]*-5[8:1],7,
{16}2,4,2,4,{8}1,8/6,{16}7bh[8:1]/5bh[8:1],,,2bh[8:1]/4bh[8:1],,,{8}8b/1b,
{4}Cf/B8/B1/B7/B6/B5/B4/B3/B2,8w4[8:1],8,1w5b[8:1],
1,{8}7-3[8:1]/2-8[8:1],3/8,{4}2/7,{8}1-5[8:1],1,
{4}6bv3[8:1],2,2bv7[8:1],6,
5h[8:1]/8h[8:1],{16}1,2,3,4,5h[8:1]/7h[8:1],,,1h[8:1]/8h[8:1],,,{8}3/4,
2b/5b,2/5,{16}1,8,{8}1,{16}7,4,6,5,{24}8,3,8,3,,,{8}1/2>5[8:1],
{16}8,7,{4}2/6<1[8:1],{8}6-2[8:1],3,6,4h[2:1],
{16},,1,8,7,6,{8}5,{16}3,4,3,4,2,1,3,8,
{8}4-1<7-2[8:3],{16}7,6,{4}4/5,{8}5V73[4:1],5,1,1h[4:1],
{16},,4,5,{8}6,7/2,8-3[8:1]/1-6[8:1],2/7,{4}8/1,
{16}4,5,4,5,3,7,3,7,2,1,2,1,3,8,3,8,
4,7,3,6,2,5,1,4,2,8,2,8,3,7,4,6,
{24}3b,2,1,7h[8:1],,,2b,1,8,6h[8:1],,,1b,8,7,5h[8:1],,,8b,7,6,4h[8:1],,,8,
4,8,4,8,4,8x,4x,8x,4x,8x,4x,1,2,3,4,5,6,7,8,1,2,3,4,
{4}5/E7f,8b/1b,{48}7h[2:1]/E3,B3,{24}B4,{48},,,,B5,B6,{24}E7,{48},,,,E8,B8,{8}B1,
{6}3,5/6,2/3,1>4[8:1]/7<4[8:1],{12},,,,{4}Cf,
{8}7/3,3/7,2h[8:1],1,{16}3,3,4,4,
{8}2-5v8[4:1],4,5,6,{16}7,E8,E1,E2,E3,E4,E5,E6,
{4}E7/Cf,{8}1h[16:1],1h[16:1],1h[16:1]/7-3[16:3],1h[16:1],7/1h[16:1],1h[16:1],
1h[16:1]/4h[16:1],1h[16:1]/4h[16:1],1h[16:1]/5h[16:1],6h[16:1]/1h[16:1],{24}1/7,2,3,4,5,6,2,3,4,5,6,7,
{4}3-6[8:1],6,{8}7-2[8:1],2,{4}2,
{8}3/5,{16}4,4,{8}4,6/4,{16}5,5,{8}5,7/3,3/7,
1bh[8:1],8h[4:1],{16}2,3,{8}4h[8:1],6h[8:1],5h[4:1],{16}6,7,{8}8h[8:1],
1h[8:1],8h[4:1],{16}2,3,{8}4,7/5,4/2,{16}1,8,{8}1,
3b/6b,4/5,{16}E6,B5,{8}B4,E8/B8,E2/B2,{16}E7,B6,{8}B5,
B1/E2/B2,B3/E4/B4,B6/E6/B5,B7/E8/B8,{16}1,2,3,4,5/1,6,7,8,
{4}1bh[8:1]/5bh[8:1],{16}3,4,2,4,1,8,1,7,{8}1,6h[4:1]/8h[4:1],
{16},,,,1,2,3,4,7,5,6,5,8,4,{8}6,
{24}2/8b,3,4,5,{48},7/1b,,6,,5,,{16}4,{24}1b/2b,3,4,{16}5,{48}8b/7b,,6,,5,,{16}4,2b,1b,2b,1b,
{4}8z4[8:1]/3s7[8:1],Cf,{12}1x,2x,3x,4x,5x,6x,
{1}7x>7<7b[2:7],
,,,4>3>2<1<8<7<6[1:3]*>3[2:1]*>3>2[1:1]*>3>2<1[2:3]*>3>2<1<8[1:2]*>3>2<1<8<7[2:5],
,,{4},,{16}D2,
B1,B7,D7,D3,B3,B5,D6,
E
