&title=青春コンプレックス
&artist=結束バンド
&first=0.4
&des=Azuki TVアニメ「ぼっち・ざ・ろっく!」オープニング
&lv_5=12+
&inote_5=(190)
{8},
{8}17,,,17,,,17,,
{8},,,,,,,,
{8}4,4,5h[8:3],4,,4,5,4h[8:5],
{8},,5,,5,3,5h[8:3],,
{8}3,3,4h[8:3],3,,3h[8:2],,1h[8:2],
{16},,3,,,,8,2,8,,1,,1h[8:2],,,,
{8}5,5,4h[8:3],5,,5,4,5h[8:5],
{8},,4,,4,6,4h[8:3],,
{8}6,6,5h[8:3],6,,6h[8:2],,8h[4:1],
{16},,6,,,,1,7,1,,8,,8-4[8:1],,2,,
{8}2,,3,34,,5,4,45,
{8}24,,46,,15,,15,6,
{8}65,,4,54,,4,5,45,
{16}75,,,,53,,,,84,,,,8-4[8:1]/4,,1,,
{8}18,,2,4,3,5,4,6,
{8}5,,7-4[16:2],8,1-5[8:1],,,6,
{8}4,5,3,4,2-7[8:1],,5-8[8:1],,
{16}1-4[8:1],,,,6>8[8:3],,,,,,,,,,,,
{16}2b,,6,5,6,,8,,6,,5,,8,,1,,
{16}4h[4:1],,2,,3h[4:1],,1,,4h[4:1],,2,,3h[4:1],,7,,
{16},,3,4,3,,1,,,,34,,18,,6<3[16:7]/5qq4[16:7],,
{16},,,,,,,,,,,,,,,,
{16}4h[8:1]/5h[8:1],,,,6h[8:1]/7h[8:1],,,,3h[8:1]/2h[8:1],,,,1h[8:1]/8h[8:1],,,,
{16}1-3[8:1]/8-6[8:1],,,,1-5[8:1]/8-4[8:1],,,,18,,,,,,7-2[8:1],,
{16}2,,7,,,,3-8[8:1],,3,,4,,4-6[8:1]*-7[8:1],,,,
{16}4-2[8:1],,,,4w8[8:1],,,,4,,,,,,,,
{8}6,5,7,7,5,6,4,5,
{8}3,4,2h[4:1],,8,5,6,,
{8}3,4,2,2,4,3,5,4,
{16}6,,8,7,8,,6,5,6,,2,1,2,,,,
{8}34,,34,,34,,34,,
{8}3b-1[8:1]/4b-8[8:1],,34,,6-8[8:1]/5-1[8:1],,65,,
{8}8q4[4:1],,4q8[4:1],,8>4[4:1],,4<4[2:1],,
{8}8h[16:12],,,,,,5h[4:2],,
{8}6,,4h[2:1],,3,,2<6[4:1],,
{8},5,5s1[4:1],,7,,7,,
{8}6h[4:1],,8h[4:1],,4h[4:1],,3-8[8:1],,
{8}6-1[8:1],,4-8[8:1],,5-1[8:1],,,,
{16}38,,,,38,,,,4,7,5,6,4,5,3,4,
{8}2-5[8:1],,1-7[8:1],,2-4[8:1],,1-6[8:1],,
{8}2-6[8:1],,1-5[8:1],,2-4[8:1],,1-6[8:1],,
{8}2<2[2:1],,,,,,7h[2:1],,
{8}8,,2h[2:1],,1,,6h[2:1],,
{8},5,5,,7,,8<5[8:1],8,
{8},1-6[8:1],1,,,,35,3,
{8}64,6,15,1,73,7,8,8,
{8}16,,16,,
{16}5,2,4,3,5,4,6,5,
{8}7bv4[8:1],,78,,2v5[8:1],,21,,
{8}8<4[8:1]/4>8[8:1],,48,,4q8[8:1]/8q4[8:1],,48,,
{8}1h[2:1]/5h[4:3],,,,,,8h[2:1],,
{8}6,,1h[2:1],,3,,2>6[4:1],,
{8},1,1-5[8:1],,5,,37,28,
{8}1w5[8:1],,1,,,,2-6[8:1],1,
{8}8-4[8:1],1,2-6[8:1],1,8-4[8:1],1,2,,
{16}35,,,,35,,,,2,4,3,5,4,6,5,7,
{8}1<6[8:1],,51,,1>4[8:1],,15,,
{8}6,5,14,2,38,7,16,2,
{8}8>3[8:1],,48,,8<5[8:1],,84,,
{8}3,4,85,7,61,2,83,4h[8:3],
{8},5,5,,3,,1>4[8:1],1,
{8},8-3[8:1],8,,,,64,6,
{8}35,3,84,8,26,2,7,7,
{8}46,,46,,{16}7,5,6,4,5,3,4,2,
{8}8h[8:3],,6,6h[8:3],,5,5,5<8[4:1],
{8},2,3,4,,5>2[4:1],8,7,
{8}6,5,4,1,8,1,7h[4:1],5,
{16}2h[4:1],,4,,6h[4:1],,8,,3h[4:1],,1,,5,4,5,4,
{16}5,,4,,
{8}4,6,8,5,1,6,2,7,
{16}3,,46,,46,,5,5,5,,,,2b/4b,,24,,
{8},7b/5b,75,,1b-4[8:1]/8b-5[8:1],18,,,
E
