&title=くねくね
&artist=しぜんすい
&first=0.075
&des=暮呓
&des_5=暮呓
&lv_5=13
&inote_5=(145)
{4}1>7[2:7],8,,8,
{4},1,,1,
{4},2,,2,
{4},3,4,5,
{4}8<2[2:7],1,,1,
{4},8,,8,
{4},7,,7,
{4},6,5,4,
{16}1-5[8:1],,,,1b,,,,,,,,8,1,7,2,
{8}6,5/7,3,4/2,6h[4:1]/3h[4:1],,,,
{16}8-4[8:1],,,,8b,,,,,,,,4,5,3,6,
{8}2,1/3,7,8/6,2-5[32:1]/7-4[32:1],,,,
{16}1s5[8:1],,,,1b,,,,,,,,7,2,6,3,
{8}5-1[8:1],1-5[8:1],,,7-3[8:1],,7,,
{4}1-5[8:1],1b,,,
{8}1w5[4:1],,,,,,,4h[2:1],
{8}6,8h[4:1],,,7q4[8:1],2p5[8:1],,,
{8},,8h[8:3],,2-6[8:1],2-4[16:1],,,
{8}8-4[8:1],7,1-5[8:1],2,8-3[8:1],7,1-6[2:1],2,
{4}4,4,4b,,
{8}8v5[8:1]/4,6,4v1[8:1]/8,2,8/4,,6/2,,
{8}7v4[8:1]/3,5,3v8[8:1]/7,1,7/3,,5/1,,
{8}1v6[8:1]/5,7,5v2[8:1]/1,3,1/5,,7/3,,
{8}8v5[8:1]/4,6,4v1[8:1]/8,2,8/4,,,,
{8}4v1[8:1]/8,2,8v5[8:1]/4,6,8/4,,6/2,,
{8}3v8[8:1]/7,1,7v4[8:1]/3,5,7/3,,5/1,,
{8}5v2[8:1]/1,3,1v6[8:1]/5,7,1/5,,7/3,,
{8}4v1[8:1]/8,2,8v5[8:1]/4,6,8/4,,,,
{16}8-4[8:1],,,,8b,,,,,,,,1,8,2,7,
{8}3,4/2,6,5/7,6h[4:1]/3h[4:1],,,,
{16}1-5[8:1],,,,1b,,,,,,,,5,4,6,3,
{8}7,8/6,2,1/3,2-5[32:1]/7-4[32:1],,,,
{16}8z4[8:1],,,,8b,,,,,,,,2,7,3,6,
{8}4-8[8:1],8-4[8:1],,,2-6[8:1],,2,,
{4}8-4[8:1],8b,,,
{1}8w4[4:1],
{4}4>6[2:7],5,,5,
{4},4,,4,
{4},3,,3,
{4},2,1,8,
{4}5<3[2:7],4,,4,
{4},5,,5,
{4},6,,6,
{4},7,8,1b,
