&title=【电棍】On and On!!
&artist=DJGun
&first=0.02
&des=心白-HW vs 7Ea_茶
&des_4=心白-HW
&des_5=心白-HW vs 7Ea_茶
&lv_4=13+
&lv_5=14+
&inote_4=(170){4},{8},,,,,,,,,,,,,,1,
1,1,1,{4}2,{8}2,2,
{4}3,{8}3,3,4,4,,4,
5,5,5,5,6,6,6,6,
{4}7,{8}7,7,{4}8,{8}8,8,
1,1,2,2,3,3,4,4,
5,5,6,6,7,7,8,8,
{16}1,2,3,4,5,6,7,8,{2}1h[1:1],
{4}5h[4:3],{24},,,,,,,,,,,,E1,E8,E7,E6,E5,E4,
{4}E3/Cf,{8}1-5[8:1],1,7-4[8:1],7,{4}2b,
{8}1xh[8:7],{32},,,,,,,,A7,E7,,,,,,,A3,E4,,,,,,,B5,A5,,,,,,,,,,,{8}1-4[8:1]/5-8[8:1],
1/5,,,7/3,7/3,
{2}7-5[8:1]/3-1[8:1],8>3[8:1]/4<7[8:1],
{4}Cf,{8}8-4[8:1],8,2-5[8:1],2,{4}7b,
{8}7xh[8:7],{32},,,,,,,,A1,D2,,,,,,,A5,D5,,,,,,,B3,A3,,,,,,,,,,,{4}2-5[8:1],
{8},7-4[8:1],,,1-5[8:1],
,,8w4[8:1],,8b,,,{2}Cfh[4:1],
{4}5h[4:1],{24}E1,E8,E7,E6,E5,E4,
{8}E3/Cf,,,2-5[8:1],,6-1[8:1],,4,
,,8-5[8:1]/4-1[8:1],8/4,,,6/2,2/6,
{2}2-4[8:1]/6-8[8:1],1<6[8:1]/5>2[8:1],
{4}Cf,{8}1-5[8:1],1,7-4[8:1],7,{4}2b,
{8}1xh[8:7],{32},,,,,,,,A7,E7,,,,,,,A3,E4,,,,,,,B5,A5,,,,,,,,,,,{4}7-4[8:1],
{8},2-5[8:1],,,8-4[8:1],
,,1bw5[4:1],,,,,{1}1>1[4:5],
{8},,,,,,,1-6v4-1[2:3],
,,,,,,,,,,,,,,,,{1}1>1[4:5],
{8},,,,,,,1-5[2:1],
,,,,,,,1-5[2:1],
,,,,,,,,{4}5/4,
5/4,6/5,6/5,
5/4,5/4,4/3,{8}4/3,3V14[4:1],
,,,7V58[4:1],,,,1,
{4}1,{8}2/8,3/7,,4/6,,5v2[8:3]*v8[8:3],
,,,,,,1p4[4:1]*q6[4:1],1,
,,,,5,4,6,3,
7h[2:1],,,2,2,,,Cf/B7/E7/B6/B2/B3/E3,
,,,,,,,,3b,
3,{16}3,4,{8}3,3,3,3,3,
5x,{16}5,4,{8}5,5,5,5,4,4,
6b,6,{16}6,5,{8}6,6,6,6,6,
4x,{16}4,5,{8}4,4,4,4,5,5,
3/4,4/3,2/5,2/5,1/6,1/6,7/8,7/8,
6/5,5/6,7/4,7/4,8/3,8/3,2/1,2/1,
{16}1,8,2,7,3,6,4,5,3,6,2,7,1,8,2,7,
{4}3-8[8:1],6-1[8:1],4w8[8:1],4b,
Cf,{8}2-6[8:1],2,7-3[8:1],7,1,1h[4:1],
{16},,8,1,{8}8-4[8:1],8,2-5[8:1],2,7,7,
{4}7h[4:1],{8}8-4[8:1],8,7-3[8:1],7,2,2h[4:1],
{16},,5,2,{8}5-8[8:1],5,1-4[8:1],1,8w4[8:1],8,
{4}8b,{16}4,5,4,5,3,6,3,6,2,7,{8}2,
,1,1-5[8:1],1,7-3[8:1],7,2,2,
{4}2h[4:1],{8}4<7[8:1],4,1>4[8:1],1,8,8h[4:1],
{16},,5,8,{8}5-1[8:1],5,8-4[8:1],8,1,1,
{1}1qq4pp2b[2:3],
{2},,1bxs5[8:1]/8bxs4[8:1],
{4}Cf,{8}4bx/6bx,4bx/6bx,
{16}3,5,3,5,3,4,3,4,{4}3b,2b/5b,
{16}1b,6,1,6,1,6,1,6,1,6,1,6,8b,7,8,7,
8,7,8,7,1b,6,1,6,1,6,8b,7,8,7,8,7,
{1}8bw4[2:1],
{4}5bh[4:3],{24},,,,,,,,,,,,E1,E8,E7,E6,E5,E4,
{4}E3/Cf,{8}1V35[8:1],1,7-3[8:1],7,{4}2b,
{8}1xh[8:7],{48},,,,,,,,,,,,A7,D7,{12}A6,{48},,,,,,A3,D4,{24}A4,{48},,,,,,,,C,B5,{12}A5,
{24},,,,,,{8}1v4[8:1]/5v8[8:1],1/5,,,7/3,7/3,
{2}7-5[8:1]/3-1[8:1],8>3[8:1]/4<7[8:1],
{4}Cf,{8}8-4[8:1],8,2-5[8:1],2,{4}7b,
{8}7xh[8:7],,,5x,,1x,,3bx,
,,{4}2>5[8:1],{8},7-4[8:1],,,1-6[8:1],
,,8w4[8:1],,8b,,,{2}Cfh[4:1],
{4}5h[4:1],{24}E1,E8,E7,E6,E5,E4,
{8}E3/Cf,,,2-5[8:1],,6-1[8:1],,4,
,,8v5[8:1]/4v1[8:1],8/4,,,6/2,2/6,
{2}2-4[8:1]/6-8[8:1],1<6[8:1]/5>2[8:1],
{4}Cf,{8}1-5[8:1],1,7-4[8:1],7,{4}2b,
{8}2xh[8:7],,,4b,,8b,,Cf,
{16},,1b,8,1,8,1,8,2b,7,2,7,3b,6,3,6,
{8}4-7[8:1],4,5-1[8:1],5,8w4[8:1],8,{4}8b,
{8}6,{16}6,5,{8}6,6,6,{16}6,4,{8}6,6,
3,{16}3,4,{8}3,3,3,{16}3,5,{8}3,3,
{16}3,4,2,5,1,6,8,7,1,8,2,7,3,6,4,5,
{2}4-7[8:1]*-1[8:1],8-5[8:1]*-3[8:1],
E
&inote_5=(170){4},{8},,,,,,,,,,,,,,1,
{16}1,8,{8}1,1,1,{16}1,8,1,8,1,8,
{32}2,3,{16}4,8,1,8,1,8,1,8,1,8,1,{8}8,{16}1,8,
1,8,1,8,1,8,1,8,{32}2,3,4,7,6,5,{16}1,,8,{8}1,
{32}7,6,{16}5,,,{8}1,{32}1/8,7/2,6/3,4/5,,,,,,,,,{16}3,6,2,7,
{8}1,{16}1,8,{8}1,1,1,{16}1,8,1,8,1,8,
{32}2,3,{16}4,8,1,8,1,8,1,8,1,8,1,{8}8,{16}1,8,
1,8,1,8,{32}2,3,{16}4,{32}7,6,{16}5,{4}1h[1:1],8h[1:1],
{24},,,,,,,,,,,,,,,,,,7,6,5,4,3,2,
{4}1b/7b,{8}8-6[8:1],8-2[8:1],8-4b[8:1],8,{4}8,
{32}1x,2,3,4,{8}5<8[8:1],,3/5>2[8:1],,7/5-1[8:1],,5,
,,2-4[8:1]*-6[8:1],1,{4}2,{8}5,4,
{32}5x,6,7,8,{8}1-6[8:1],3,1-4[8:1],,1,5-1b[32:3],7,
{64}5/6,Cf,,,,,,,,,,,,,,,{8}8h[16:1]/2h[16:1],8h[16:1]/2h[16:1],3h[16:1]/7h[16:1],3h[16:1]/7h[16:1],{24}4,5,6,7,8,1,
{8}2b/6b,{16}5,3,{8}7,2-5[8:1],,2/6-1[8:1],,6/4-8[8:1],
{16},,7,6,{4}5-1[8:1],{16}1,2,{8}3-8[8:1],{16},,8,7,
{4}6-1[8:1],{16}2,3,{8}4w8[8:1],,4,,,{4}Cfh[4:1],
{300}B7,B2,E7,E3,B6,{15}B3,{60},,,,,,,,,,{4}8b/1h[4:1],{24}2-6b[8:1],3,4,5,6,7,
{8}8b/2b,,,5<6-8[8:1]*-7>8[8:1],,5>4-2[8:1]*-3>2[8:1],,5,
,,7-5[8:1]*-3[8:1],8,{4}7,{8}4,5,
{32}4x,3,2,1,{8}8-3[8:1],6,8-5[8:1],,8,4-8b[32:3],2,
{4}4/3,{8}1h[16:1]/7h[16:1],1h[16:1]/7h[16:1],6h[16:1]/2h[16:1],6h[16:1]/2h[16:1],{24}5,4,3,2,1,8,
{8}7b/3b,{16}4,6,{8}2,7-4[8:1],,7/3-8[8:1],,3/5-1[8:1],
{16},,2,3,{4}4-8[8:1],{16}8,7,{8}6-1[8:1],{16},,1,2,
{4}3-8[8:1],{16}7,6,{8}5v2-8[16:3]*v8-2[16:3],,,,,{1}8>5-8[8:11],
{8},,,,,,,1-4<6>4-1[8:13],
,,,,,,,,,,,,,,,,{1}1<3v4[8:11],
{8},,,,,,,8p1[2:1],
,,,,,,,4p5[2:1],
,,,,,,,,7h[8:15],
8,,8,,6,,6,
,5,,5,,4,,4-1[8:1],
,6,,8-5[8:1],,2,,1>4[4:1],
,4<7[4:1],,7>2[4:1],,2qq5[2:1],,6h[2:1],
,,,,,,5s1[3:1]/6V48[3:1],6/5,
,,,,2,7,1,8,
1v4-2[2:1],,,5-7[8:1],5,,,1b/8b,
,,,,,,,,1h[8:1],
6,{16}1h[8:1],7,{8}7,1h[8:1],8,1h[8:1],7,
1h[8:1],{16}6,6,{8}1h[8:1],5,1>4[8:1],6,1,7,
8h[8:1],3,{16}8h[8:1],2,{8}2,8h[8:1],1,8h[8:1],2,
8h[8:1],{16}3,3,{8}8h[8:1],4,8<5[8:1],3,8,2,
1-5[8:1],4,{16}1q3[8:3],6,{8}6,7,7,8,8,
8-4[8:1],5,{16}8p6[8:3],3,{8}3,2,2,1,1,
{16}1,7,2,6,3,5,4,6,3,7,2,8,1,1,1,1,
{8}1-5[8:1],3,1/8-4[8:1],6,{4}8/1w5[8:1],{64}1b,Cf,,,,,,,,,,,,,,,{4}7b/2b,
{8}1-5[8:1],{16}8,8,{8}1-3[8:1],7-4[8:1],1q5b[8:1],7,
1,{16}8,8,{8}8-4[8:1],2q6[8:1],8<5[8:1],2-8[8:1],8-4b[8:1],2,
{4}6h[4:1],{8}5-3[8:1],{16}7,7,{8}5-1[8:1],6,5,8,
{16},,2,2,{8}1,{16}7,7,{8}8,2/1,4/3,5/6,
{32}8bx/7bx,6/1,5/2,4/3,,,,,{16}2,2,7,7,1-6[8:1],1,8-4[8:1],8,{8}1,8,
{16},,3,5,{8}3-8[8:1],7v4[8:1],3>1[8:1],7<5[8:1],3,7,
{4}3h[4:1],{8}4-6[8:1],{16}2,2,{8}4-8[8:1],3,4,1,
{16},,7,7,{8}5,{16}2,2,{8}4,5/3,6/2,1/7,
{32}8bxV24V68[8:11],7/1,2/6,3/5,{8}4,,,{4}C,1x,
{8},3x,{4}3x,{8}C,2x,{32},,,,,,,,2b/7b,
3/6,{16}4z8b[16:1]/5s1b[16:1],,,{4}4b/5b,2h[8:1]/7h[8:1],{8}B7/B2/E7/E3,B7/B2/E7/E3,
{16}1,1,8,8,2,2,7,7,1b,8,8,8,1b,8,8,8,
1b,8,8,8,8,8,8,8,8w4[8:1],8,8,8,{4}8b,
{16},,5,4,6b,3,7,2,{8}8-4[8:1],1b-5[8:1],8,1,
8b,E8,E2,{16}E7,C,{8}E3,{16}E6,E5,{4}3xpp1b[2:1],
8bh[4:3],{24},,,,,,,,,,,,7,6,5,4,3,2,
{4}1b/7b,{8}8<6[8:1],8>2[8:1],8-4b[8:1],8,{4}8,
{32}1x,2,3,4,{8}5-8[8:1],,3/5-2[8:1],,7/5-1[8:1],,5,
,,2pp4[8:1]*q6[8:1],1,{4}2,{8}5,4,
{32}5x,6,7,8,{8}1v6[8:1],3,1>4[8:1],,1,5-1b[32:3],7,
{64}5/6,Cf,,,,,,,,,,,,,,,{8}8h[16:1]/2h[16:1],8h[16:1]/2h[16:1],3h[16:1]/7h[16:1],3h[16:1]/7h[16:1],{24}4,5,6,7,8,1,
{8}2b/6b,{16}5,3,{8}7,2-5[8:1],,2/6-1[8:1],,6/4-8[8:1],
{16},,7,6,{4}5-1[8:1],{16}1,2,{8}3-8[8:1],{16},,8,7,
{4}6-1[8:1],{16}2,3,{8}4w8[8:1],,4,,,{4}Cfh[4:1],
B7/B6/E7/B2/E3/B3,8b/1h[4:1],{24}2-6b[8:1],3,4,5,6,7,
{8}8b/2b,,,5V71[8:1]*<6-8>1[8:1],,5V31[8:1]*>4-2<1[8:1],,5,
,,7qq5[8:1]*p3[8:1],8,{4}7,{8}4,5,
{32}4x,3,2,1,{8}8v3[8:1],6,8<5[8:1],,8,4-8b[32:3],2,
{4}4/3,{8}1h[16:1]/7h[16:1],1h[16:1]/7h[16:1],6h[16:1]/2h[16:1],6h[16:1]/2h[16:1],{24}5,4,3,2,1,8,
{8}7b/3b,{16}4,6,{8}2,7-5-8[3:1],,7/1-4[12:1],,1,
{16},,3b,7,3,7,3,7,3,7,4b,8,4,8,4,8,
{24}4x,3,2,1-5[8:1],,,{8}8x-6[8:1],1x-3[8:1],8-4[8:1],1,{4}8,
{8}1,{16}1,8,{8}1,1,1,{16}1,8,1,8,1,8,
{32}2,3,{16}4,8,1,8,1,8,1,8,1,8,1,{8}8,{16}1,8,
1,8,2,7,3,6,4,5,3,6,2,7,1,8,{8}1-5-8[4:1],
,8-4-1[4:1],,1w5[4:1],
E
