&title=Schwarzschild
&artist=Tsukasa
&first=0
&des=7.3DP玉子 小鳥遊Jack Strix
&wholebpm=188
&shortid=803
&genre=maimai
&cabinet=SD
&version=maimai FiNALE
&chartconverter=Neskol
&des_2=-
&des_3=-
&des_4=Jack
&des_5=“H”ack
&des_6=“H”ack underground
&des_7=DP玉子Jack
&lv_7=3,,,3,,,2,,
&inote_7=(188){1},
{4},,,,
{16}1,,,2,,,3,,3,,,4,,,5,,
{8}5,,,,,,1,1,
{8},,,,,2,,3,
{1},
{12}7,8,1,2,3,4,7,6,5,3,2,1,
{8}8,,,7,,,6,6p3[2:1],
{4},,,1>4[2:3],
{8}5,6,,6,7,,7,8,
{8},8,7,,7,6,5<8[2:3],,
{8}4,3,,3,2,,2,1,
{8},1,2,,2,3,4>5[2:7],,
8,7,,7,6,,6,5,,5,6,,6,7,8<5[2:3],,
1,2,,2,3,,3,4,,4,3,,3,2,18,,
{16}36,,,,,,,,,,,,6,7,8,1,
2,1,2,1,2,,7,8,7,8,7,,1,8,1,,
6,5,6,5,6,,3,4,3,4,3,,5,4,5,,
4,5,4,5\,4,,5,4,5,4,5,,3,6,3,,
7,2,7,2,7,,2,7,2,7,2,,8,1,8,,
2,1,2,1,2,,7,8,7,8,7,,1,8,1,8,
2,3,4,5,
{16}8,7,6,5,8,1,2,3,7,6,5,4,1,2,3,4,
7,6,4/5,3,2,1,
{16}7,8,6,1,5,2,4,3,5,4,6,5,7,{32}2,3,4,5,1,2,3,4,7,6,5,4,8,7,6,5,,,
{16}3,4,3,2,3,,5,4,5,4,5,,2,1,2,,
6,5,6,7,6,,4,5,4,5,4,,7,8,7,,
3,4,3,4,4,,6,5,6,5,5,,3,4,3,4,4,,6,5,6,5,5,,3,4,3,4,4,,53,,
3,4,3,2,3,,7,8,7,,16,,2,1,2,,
{24}45,,,4,3,2,1,8,7,
{16}6,,78,,,,2,1,2,,
{8}6,3-6[8:1],,
3/7-2[8:1],,7/4-1[8:1],,4/8-5[8:1],,8/1-5[16:1],,15,
{16}4-1[8:1]/8-5[8:1],73,26,,48,,,,
{16}18,,7-4[8:1],8,7,,78,,2-5[8:1],1,2,,12,,
8-4[8:1],1,8,,18,,1-5[8:1],8,1,,18,,{8}8,7,6,
{16}45,,3-8[8:1],4,3,,34,,6-1[8:1],5,6,,56,,
2,,3,4,3,4,3,,6,5,6,5,6,,{8}27,18,2/7,
{16}2-5[8:1],1,2,,12,,7-4[8:1],8,7,,78,,
1-5[8:1],8,1,,18,,8-4[8:1],1,8,,18,,{8}1,2,3,
{16}
4h[8:1]/5h[8:1],,,3h[8:1]/2h[8:1],,,43,,6h[8:1]/5h[8:1],,,8h[8:1]/7h[8:1],,,76,,
{16}4/5,,3,6,2,7,1,8,1,,2/7,36,4-1[8:1]/5,,,,
{1}8b,
{1},
{1},
{2},3,
{8}6,6,,5,,4,,3,
{8},2h[16:1],,1,8,7h[16:1],1,2,
{8}5,5,,4h[16:1],4h[16:1],,,3/6,
{8},5h[16:1],5h[16:1],,3/6,4,5,4,
{8}3-6[4:5]/6,6,,6,,7,,7,
{8},8,,8,{12}7,7,7,{8}7,,
{8}3/6-3[4:5],3,,3,,2,,2,
{8},1,{12}1,1,1,{8}1-5[8:1],,,,
{8}2/7>2[4:5],2,,2,,3,,3,
{8},4,,4,{12}3,3,3,{8}3,,
{8}2<7[4:5]/7,7,,7,,6,,6,
{8},5,{12}5,5,5,{8}5-1[8:1],,,,
{4}8q1[1:2],,,{16}8,4,8,4,
7,3,7,3,6,2,6,2,5,4,5,4,6,5,7,6,
{2}8,{16}1,5,1,5,1/5,2/6,3/7,4/8,
{8}1/5,1-3[8:1]/5,3,1-6[8:1]/5,7,1-4[8:1]/5,3,1-7[8:1]/5,7,1/5,3,1/5,{16}1p5[8:1]/5p1[8:1],26,37,48,15,,,,
{8}84,8-6[8:1]/4,6,8-3[8:1]/4,2,8-5[8:1]/4,6,8-2[8:1]/4,2,8/4,6,8/4,{16}8q4[8:1]/4q8[8:1],73,62,51,84,,,,
{8}1/5,1-3[8:1]/5,3,1-6[8:1]/5,7,1-4[8:1]/5,3,1]/5,7,2/5,
{16}3,4,3,4,2,5,2,5,1,6,1,6,
{16}8,7,8,7,2,1,2,1,3,8,3,8,4,7,4,7,
{48}4,,8,,4,,8,,,3,,,7,,,2,,,6,,2,,6,,1-5[8:1],,,5,,,8,,,4,,,1,,,,,,,,,,,,
{8}6,6<1[8:1],3,2-5[8:1]/6,,2/6<1[8:1],,3/6,
{16}3,4,5,6,2,3,4,5,1,2,3,4,2,3,4,5,
{8}3,3>8[8:1],6,3/7-4[8:1],,3>8[8:1]/7,,3/6,
{16}6,5,4,3,7,6,5,4,8,7,6,5,7,6,5,4,
{8}6,6<1[8:1],3,2-5[8:1]/6,,2/6<1[8:1],,2/6,
{16}2,,4,5,4,5,4,5,3,4,2,5,1,6,8,7,
{16}1,2,3,4,7,6,5,4,8,7,6,5,4/8,3/7,2/6,1/5,
{16}4,3,2,1,8,7,6,5,2,1,3,8,4,7,5,6,
{16}1,8,1,8,1,,7/2,7/2,8/1,,,,8b,,,,
{16}2,7,1,,8,2,8,2,7,3,7,,4,5,3,6,
{48}7,,4,,8,,4,,,,,,2,,,1,,,2,,,1,,,3,,,4,,,3,,,,,,6,,5,,6,,4,,7,,4,,
{16}6,5,6,,4,5,4,5,3,6,3,,6,3,7,2,
{48}8,,,1,,,8,,,1,,,7,,2,,7,,2,,7,,2,,6,,,3,,,6,,,3,,,5,,4,,5,,4,,5,,4,,
{48}6,,,3,,,7,,,2,,,8,,1,,8,,1,,8,,1,,7,,,2,,,6,,,3,,,5,,4,,5,,4,,5,,4,,
{16}5,3,6,2,7,3,8,4,7,3,6,2,5,1,4,8,
{16}3/7>6[16:7],4/8>7[16:7],1>8[16:7]/5,2>1[16:7]/6,3<2[16:7]/7,,,,7,8,1,2,3,4,5,6,
{8}7-3[4:15],
{8}4,5,5,4,5,6,6,
{8}5,4,5,4,5,2,4,5,
{16}6,6,5,5,6,,6,,4,,5,,2,,4,,
{8}2,5,4,5,1,1,2-6[1:4],2,
{8}7,5,4,4,5,4,3,3,
{8}4,5,4,5,4,7,5,4,
{16}3,3,4,4,3,,3,,5,,4,,7,,5,,
{8}7,4,5,4,8,8,7,7,
