&title=IZANA
&artist=t+pazolite / P*Light
&first=0.17
&des=Rr19
&des_5=
&lv_5=14
&inote_5=(222){4},,,,4/5<4[8:13],
,,6,
{1}6,
{2}3/7<2[8:11],{8}1,,,8,
{2}7,6,
3/5h[2:1],{4}3-1[4:1],3,
7-4[4:1],7,3-6[4:1],{8}3,1,
{1}1>7[2:1],
{4}8-6[8:1],8/1-5[8:1],1/2-4[8:1],2b,
{8}8-4[8:1],2,8,3,{4}2-4[8:1]/5-7[8:1],5/2,
{8}8-6[8:1],2-4[8:1],8,2,{4}1w5[8:1],1,
{8}7/3h[8:1],7,2/6h[8:1],2,3,5/4,6,5/4,
3,{16}4,4,{8}4-8[8:1],5/3,4,2,6,4,
6-3[8:1],5,2-7[8:1],1,{4}6-1[8:1],6/4,
{8}7-4[8:1],2-5[8:1],7,2,{4}8w4[8:1],8,
{8}6-4[8:1]/2-8[8:1],4/8,,,7/6,6/5,5/4,4/3,
{4}3/2-4[8:1],2/1-5[8:1],1/8-6[8:1],2/8b,
{8}1-5[8:1],7,1,6,{4}7-4[8:1]/3-8[8:1],7/3,
{8}1-7[8:1],3-5[8:1],1,3,{4}2-6[8:1],2,
{8}4/8h[8:1],4,3/6h[8:1],3,7/5,6,2/4,3,
6/4,{16}5,5,{8}5-1[8:1],6/4,5,7,3,5,
7-1[8:1],5,{4}7b,{8}3-5[8:1],5,{4}3b,
{8}7-3[8:1],6,{4}5/7b,{8}1-5[8:1],8,{4}7/1b,
{8}2,2,3,3,4,4,5,5,
{4}6<2v4[8:3],4b,,B6/B7/C/B2/B3,
8b-4[8:1],{8}1b,2b-5[8:1],,,{4}7b-3[8:1],
1b-5[8:1],{8}8b,7b-3[8:1],,1b,{4}1b,
4b-8[8:1],{8}3b,2b-6[8:1],,8b,{4}7b,
{8}6-4[8:1],2-8[8:1],6,2,{2}7w3[8:1],
{8}8x/6h[8:1],4,2,2,1x/3h[8:1],5,7,7,
8x/6h[8:1],4,2,2,1x/3h[8:1],5,7,7,
5/8x,6,4/1x,3,5/7x,6,4/2x,3,
7-4[8:1],6,7/3-8[8:1],2,{4}5w1[8:1],5b,
{8}5/7h[8:1],6,4/2h[8:1],3,{16}4,6,{8}4,{16}5,3,{8}5,
4/2,3,7/5,6,2/4,1,6/4,7,
5/1>4[8:1],3,1,8<5[8:1],6,8,{4}2-6[8:1],
2/4-8[8:1],4/3-7[8:1],3/1w5[8:1],1b,
{8}3/7h[8:1],3,6/2h[8:1],6,{16}4,5,{8}3,{16}6,7,{8}5,
3,4/2,6,7/5,3,5,7,3,
{4}5/1>4[8:1],1/A2/E3/A3,8<5[8:1],8/A7/E7/A6,
{8}2-4[8:1],2,8-6[8:1],8,{4}1w5[8:1],1b,
{8}1-3[8:1],5,1-7[8:1],5,1-3[8:1],5,1,5,
8-6[8:1],4,8-2[8:1],4,8-6>5[8:1],4,8-2>3[8:1],4,
{4}8,{8}5/4,3,2/1,8,7/6,5,
{16}4bxh[8:1]/3bxh[8:1],,,2bxh[8:1]/1bxh[8:1],,,{8}7bxh[8:1]/8bxh[8:1],{16},6bxh[8:1]/5bxh[8:1],,,{4}4bxh[8:1]/3bxh[8:1],
2bx/Cf,{8}8,8,7,7,6,6,
5,5,4,4,3,3,2,2,
{12}8,{24}7,8,{48},{16}7,1,6,1,6,2,5,2,5,3,4,3,4,
6xh,2xh,8xh,4xh,7x,3x,5x,1x,6xh,2xh,8xh,4xh,7x-3[8:1],3x,5x,1x,
{1}Cf/B7/B3/7bx-5-3-1<4-2[8:57]*-1-3-5<2>4[8:57],
{2},,,,,,,,,,,,,,8<4[0.5405##0.5405],
B2`B3,
1-3-5[0.5405##0.5405],B7`B6,
6-3[0.5405##0.2703],6>1[0.5405##0.5405],
6/8,B8/B7,
7h[2:1]/5-1[0.5405##0.2703],5,
5>2[0.5405##0.2703],5<5[0.5405##1.3513],
{1}5b,
{2},Ch[4:17],
{4}8,8,7,7,
6,6,5,5,
4,4,3,3,
2,2,1,1,
{8}7/5,7,4/2,2,7/5,6,4/2,3,
8/5,6,4/1,3,4/8,6,5/1,3,
8/4,7/5,2/1,5/3,8/7,6/4,8/1,6/3,
2-8[8:1],6-4[8:1],2-4[8:1],6-8[8:1],2,6,{4}1w5b[8:1],
1b,{8}7-3[8:1],2,7,1-5[8:1],8,1<6[8:1]*>4[8:1],
,1,,5,{4}5-8[8:1]*-7[8:1],5-3[8:1]*-2[8:1],
5,{8}8-4[8:1],2,8,1-5[8:1],6,1>4[8:1],
,1<6[8:1],,1,{4}4-8[8:1],8/4,
{8}7-4[8:1],8,7,2-5[8:1],1,2,1,6/8-4[8:1],
,8/2,,1,{4}1-3[8:1]*-4[8:1],1>7[4:7],
{8}1b,,,B2/E2/B1,,,{4}B7/E7/B6,
{8},B4/B3/E4,,,{4}C,1-5[8:1],
{8}1-3[8:1],6,1-7[8:1],4,1-4[8:1],6,1-6[8:1],5,
1-3[8:1],4,1-7[8:1],6,1>4[8:1],4,1-5[8:1],6,
{4}1,{8}8-6[8:1],5,8-2[8:1],3,8-5[8:1],5,
8-3[8:1],3,8-4[8:1],5,{4}8<5[8:1]*>3[8:1],8,
{8}4-8[8:1],4,6-1[8:1],6,2-5[8:1],2,7-4[8:1],7,
1-5[8:1],1,6-3[8:1],6,2-7[8:1],2,{4}5,
{8}6/4,5/3,4/2,3/1,8/2,7/1,6/8,7/5,
{16}3x,7x,1x,5x,2x,6x,{32}1x,8x,7x,6x,5x,4x,3x,2x,1x,8x,7x,6x,{4}5bx/Cf,
{8}1-5[8:1],7,1,6,{4}7-5[8:1]/4-2[8:1],4/7,
{8}1-3[8:1],7-5[8:1],1,7,{4}8w4[8:1],8,
{8}2/6h[8:1],2,7/3h[8:1],7,6,4/5,3,4/5,
6,{16}5,5,{8}5-1[8:1],4/6,5,7,3,5,
3-6[8:1],4,7-2[8:1],8,{4}3-8[8:1],3/5,
{8}2-5[8:1],7-4[8:1],2,7,{4}1w5[8:1],1>7[2:3],
{8}B2/B3/E3,,,1h[4:1],,,{4}8h[4:1],
{8},2h[4:1],,,{4}1-6[8:1]*-4[8:1],1b,
{8}8-4[8:1],2,8,3,{4}2-5[8:1]/6-1[8:1],2/6,
{8}8-2[8:1],6-4[8:1],8,6,{4}7-3[8:1],7,
{8}5/1h[8:1],5,6/3h[8:1],6,2/4,3,7/5,6,
3/5,{16}4,4,{8}4-8[8:1],3/5,4,2,6,4,
2-8[8:1],4,{4}2b,{8}6-4[8:1],4,{4}6b,
{8}2-6[8:1],3,{4}4/2b,{8}8-4[8:1],1,{4}2/8b,
{8}7,7,6,6,5,5,4,4,
{4}3>7v5[8:3],5b,,B7/B2/C/E5,
8b-4[8:1],{8}1b,3bV51[8:1],,,{4}7bV15[8:1],
3b,{8}4b,4b-1[8:1]/6b-1[8:1],,,,,{4}1bV37[8:1],
{8}4b,5bV73[8:1],,2b,{4}2b,
{8}6-8[8:1],2-4[8:1],6,2,1-6[8:1]*-4[8:1],3/7,{4}1,
{8}5x/3h[8:1],1,7,7,8x/6h[8:1],4,2,2,
1x/3h[8:1],5,7,7,8x/6h[8:1],4,2,2,
4/1x,3,5/8x,6,4/2x,3,5/7x,6,
2-5[8:1],3,2/6-1[8:1],7,{4}4w8[8:1],4b,
E
