&title=ちゅ、多様性
&artist=ano
&first=0
&des=aoihoshi
&clock_count=4
&lv_5=12
&inote_5=(153)
{1},
{16}
8-5[4:3],,,,4,,,,4,,,,4,,,,
1-4[4:3],,,,5,,,,5,,,,5,,,,
7,,3,4,3,5,4,5,4,6,5,6,4,5,3,4,
3-8[8:3],,,,4,,,,5,,7h[256:1],,7h[256:1]/8h[256:1],,,,
5,,5,,4/6,,7,,4,,4,,3/5,,2,,
6,,5,,4/7,,8,,3,,4,,2/5,,1,,
7,,5,,4/6,,8,,2,,4,,3/5,,1h[4:1]/7b,,
,,4,,2/5,,3/6,,4-6[8:1]/7,,8-2[8:1],,4,,8,,
4qq4[4:1],,,,6pp4[2:1],,,,6,,,,,,,,
1,,1,,2/8,,7,,5-8[8:1]/6,,4,,3/5,,2,,
1pp1[4:1],,,,7qq1[2:1],,,,7,,,,,,,,
4,,4,,3/5,,2,,1/8-3[8:1],,7,,6/8,,5,,
5pp5[4:1],,,,5qq1[2:1],,,,3h[2:1],,,,,,,,
,,2,,1/6,,5,,3/4,,2,,1/4<2[2:1],,5,,
6h[4:3],,,,,,,,,,,,5,,4b/7b,,
,,1/5,,2/6,,3/7,,4,8,3,7,2,6,1,5,
1-5[8:1]/5^8[8:1],,,,1pp5[8:3]/5,,,,3h[2:1],,,,,,,,
6,,7,,2/8,,3,,4-8[8:1]/6,,5,,3/4,,2,,
1p8[4:1],,,,8q1[8:3]*<1[8:3],,,,,,,,,,,,
4,,4,,3/5,,2,,1/8-3[8:1],,7,,6/8,,5,,
4qq4[4:1],,,,4pp8[2:1],,,,6h[2:1],,,,,,,,
,,7,,8/3,,4,,6/5,,7,,8/5>7[2:1],,4,,
6h[4:3],,,,,,,,,,,,2,,4b/8b,,
,,1/5,,2/6,,3/7,,4,8,3,7,2,6,1,5,
8<5[8:3],,,,6^3[8:3],,,,4^1[8:3],,,,2,,,,
8h[4:1],,,,6z2[8:3],,6,,7,,,,7,,,,
8^3[8:3],,,,2^5[8:3],,,,4^7[8:3],,,,6,,,,
1h[4:1],,,,4z8[8:3],,4,,3,,,,3,,,,
2-6[8:1],,,,5-8[8:1],,,,4,,,,1,,2/8-3[8:1],,
,,4-1[8:1],,,,5,,6,,7,,8s4[2:1],,1,,
2h[4:3],,,,,,,,,,,,4,,1/5pp1[8:3],,
,,1,,2,,3,,4,,5,,6,,7,,
8-4[8:1],,,,8-6[8:1]/1-6[8:1],,,,8/1-4[8:1]*-3[8:1],,,,1qq6[8:3],,,,
3,,3,,2,,1,,8-3[8:1]*-5[8:1],,,,8,,,,
1-5[8:1],,,,1-3[8:1]/8-3[8:1],,,,1/8-5[8:1]*-6[8:1],,,,8pp3[8:3],,,,
7,,7,,6,,5,,4-7[8:1]*-1[8:1],,,,4,,,,
3^8[8:1]/8-4[8:1],,,,3-5[8:1]/8^5[8:1],,,,3/8,,,,6,,4/8^3[8:1],,
,,5^8[8:1],,,,3,,2-6[8:1],,2,,8>6[2:1],,8,,
4h[4:3],,,,,,,,,,,,8,,2/6,,
3/4,,1,5,2,4,3,8,4,7,5,6,2,1,3,8,
4b-8[8:1],,7-5[8:1],,4,,7,,1-3[8:1],,4-8[8:1],,1,,4,,
3q5[4:1],,2,,1,,8,,8^3[8:1]*^5[8:1],,,,8,,,,
5-1[8:1],,2-4[8:1],,5,,2,,8-6[8:1],,5-1[8:1],,8,,5b,,
,,2/6,,4^1[8:1]/8,,,,8,,7,,6,,5,,
2-7[8:1],,1,,5^8[8:1]/2,,6,,5/1-5[8:1],,2,,1/7-4[8:1],,8,,
3-8[8:1]/7,,2,,3/4,,5h[4:1],,,,1,,2/6,,3/7,,
5/6,,5/6,,4/7,,3,4,3,,2/5,,1/6,,6,5,
6,,4/7,,3/6,,2/5,,7,8,6,1,5,2,4,3,
6-2[8:1],,3-5[8:1],,6,,3,,1-7[8:1],,6-2[8:1],,1,,6,,
7^4[8:1],,8,,1,,2,,3,4,2,5,3,7,5,6,
3-7[8:1],,6-4[8:1],,3,,6,,8-2[8:1],,3-7[8:1],,8,,3bV15[4:1],,
,,6,,7,,8,,5,8,4,7,3,6,2,5,
1h[8:3],,,,,,8,2,7h[8:3],,,,,,5,6,
4h[4:1],,,,,,{64}3,6h[256:1],{32},{16},,,{64}7,2h[256:1],{32},{16},,,{64}1,8h[256:1],{32},{16},
2-7[8:1],,,,5-2[8:1]/2,,,,5/8-5[8:1],,,,3/8,,3h[4:1],,
,,4,,2/5,,1/6,,4/8,,2v4[8:1]/6v8[8:1],,4/8,,2b/6b,,
