&title=Sign
&artist=FLOW
&first=0.29
&des=谢谢惠顾嗨梨桑
&lv_5=13+
&inote_5=(148)
{96},,,,,,,,,,,
{8},,,,,,,,,,,,,,,,,1/6,,2,,3,,4<8[2:1],,4h[4:1],,
,,5,,6,,8/3,,7,,6,,5>1[2:1],,5h[4:1],,,,7,4,,,1s5[2:1]/7,,,,
,,,,8z4[2:1]/2,,,,,,,,1q5[8:3]/5q1[8:3],,,,,
{16},,,
{96},
(178)
{16}2,4,3,5,4,,7,5,6,4,5,,2,5,,,
{32}3,,4,,3,,6,,5,,6,,3,,4,,3,,6,,4,,5,,3,,5,,4,,6,,1b,,
{16},7,,3,,2-4[8:1]/5-7[8:1],,
,,,,,,,,5,,2,,6,,7-5[8:1]/4-2[8:1],,,,
,,,,,,3,,8,,4,,2-6[8:1]/6-2[8:1],,
,,,,,,,,1,,6,5,6,,3-5-2[4:1],,,,7,,6,,5,,1,,6,,4,
,5-2[8:1]/7-4[8:1],,,,,,,,,,8,,3,,5,,4-7[8:1]/2-5[8:1],,
,,,,,,,,4h[4:1]/6h[4:1],,,,
,,4/6,,5h[8:1]/3h[8:1],,,,5/3,,6-3[8:1]/2-7[8:1],,,,,,
,,,,1,5,1,5,1-6[8:1],,,,
1/6,,,,4,,,,5,,5,,6/4,,,,3,,3,,2/5,,,,1,,1,,2/8,,,
,1-4[8:1]/6h[4:1],,,,1,,,,7,,7,,6/1,,,,5,,5,,4/7,,,,6/5,,7h[4:1]/4,,
,,5h[4:1],,,,7,,8-6[8:1],,,2,8,,4,,5,,2h[4:1],,
,,1,,3-1[8:1],,,5,3,,7,,1,,5h[8:1],,,
,2/6,,2>6[16:5]/6<2[16:5],,,,,,,,,,,,4,,4,,2/5,,
,,8,3,8,3,8-3[8:1],,,,8/3,,,,4,,,,8,,7,,1/6,,,,2,,1,,8/3,,
,,3,,4,,2/5,,,,5-8[8:1]/3h[4:1],,,,5,,,,4,,5,,4/7,,,,8,,7,,1/6,,,,1/2,,8/3h[4:1],,,,
1h[4:1],,,,3,,4>2[8:1],,,6,4,,8,,1,,6h[4:1],,,,5,,8<6[8:1],,,1,8,,
2,,3,,5h[4:1]/2h[4:1],,,,,,,,3/4,,2<5[16:6]/5,,,,,,4b>5[2:1],,,,,,
,,,,,,,,1-3-7-4[16:8],,2,,1/6h[4:2],,,,,,,,,,3,,6-8-4-1[2:1],,,,6/4h[2:1]
,,,,,,,,,,5,,2-6-1-4[2:1],,,,2/6h[2:1],,,,,,,,,,5,,4/6,,7/3,,8/2,,1w5[8:1],,,,1b,,
,,,,6h[4:1],,,,4qq1[2:1],,,,5,,5,,6,,6,,7,,7,,2-5[8:1],,2,,7-3[8:1],,7,
,1-5[8:1],,1,,8,,,,6,5,7,5,,,3,4,2,4,,,1,8-4[8:1],2,7,1h[16:13],,,
,,,,,,,,,,,,,
{24}1b<6[8:1]/6,2,3,4,,,1b,,,,,,2b<7[8:1],3,4,5,,,2b,,,
{32}
,,,,4-7[8:1],,,,4,,,,6-2[8:1],,,,6,,,,1-5[8:1],,,,1,,,,7,,,,
,,,,
{24}8b>3[8:1],7,6,5,,,8,,,,,,7b>2[8:1],6,5,4,,,7,,,,,,
3-6[8:1]/5-2[8:1],,,,,,,,,,,,
{16}3,,4-2-8[8:1],,,,4/6,,,,5,,6v4[8:1],,,,2-8[8:1],,3,,2,,7-5-3[8:1],,,,7/1,,
1-3[8:1],,2,,6/1,,5-8[8:1],,5,,1,,,,2,,2-7-1v4[2:1]/5h[8:6],,,,,,,,,,,,
,,,,7/4,,7/4,,3/8,,3/8,,2h[8:1]/1h[8:1],,,,
{24}2b<6[8:1],
3,4,5,,,2,,,,,,1b<5[8:1],2,3,4,,,1,,,
{32},,,,4v7[8:1],,,,4,,,,6p2[8:1],,,,6,,,,1-5[8:1],,,,1,,,,6,,,,
,,,,
{24}7b>3[8:1],6,5,4,,,7,,,,,,
{24}8,7,6,5,,,8bw4[4:1]
,1,2,3,,,
{16},,,,,,,,2/5,,1-5[8:1],,,,1-3[8:1]/6,,,,1,,5-7[8:1],,
,,5-1[8:1],,2,,5,,3h[4:1],,,,6,,7-4[8:1],,3,,7,,2-5[8:1],,3,,2/6,,
,,{96}4bqq2>6[16:14],8bqq6<2[16:14]*qq6<2[16:14],,,,,
{16},,,,,,,,,,,,,,,,,,,,,
2/7,,2-5[8:1]/7-4[8:1],,1/8,,2b/7b,,,,4x/3x,,4/5,,6/5,,1/2,,6/5,,3/4,,7/8,,
3,4,1,8,5,6,8,7,4w8[8:1],,,,4b,,
,,1x>4[8:1],,8,,7,,6,,5<8[8:1],,4,,3,,2,,1-4[8:1],,8,,7,,6,,5-8[8:1],,
4,,3,,2,,7-2[8:1]/3-6[8:1],,,,
,,,,4h[8:1]/8h[8:1],,,,4/8,
{96},,,,,,4bqq5[32:9],8bqq1[32:9]*qq1[32:9],
