&title=驟雨の狭間
&artist=Silentroom
&first=-2.758
&des=光敏性癫痫
&des_5=光敏性癫痫
&lv_5=14+
&inote_5=(87){4},{8},,,,,,,,,,4h[32:3],
4,,,4h[32:3],
4,,,4h[32:3],4,,,4h[32:3],
4>5[8:11],,,4h[32:3],4,,,4h[32:3],
4,,,4h[32:3],4q3[8:11],,,4h[32:3],
4,,,4bh[32:3],4b,,,4h[32:3],
4>5p3V17-5[8:23],,,4h[32:3],4,,,4h[32:3],
4,,,4h[32:3],4,,,4h[32:3],
4,,,4h[32:3],4,,,4h[32:3],
4-8[16:1],,4b/1b-7-5-3-1<2-8-6-4-2b[8:3],2/6,1b/4x,,8x-2-4-6-8>7-1-3-5-7[8:3],
7x,8b/3x,,2x-8-6-4-2<3-1-7-5-3b[8:3],3x,2b/5x,,7x-1-3-5-7>6-8-2-4-6[8:3],
6x,7b/4x,,3x-1-7-5-3>4-2-8-6-4b[8:3],4x,3b/8x,,6x-8-2-4-6<5-7-1-3-5[8:3],
5x,6b/1x,,4x-2-8-6-4>5-3-1-7-5b[8:3],4x,4b/8x,,5x-7-1-3-5<4[4:1],
4x,5b/1x,,1x-5b[16:1],{32}6x,,,6,{16}1b-3b[16:1],6,{32}6,,,6,{16}1b-6b[16:1],7,
{32}7,,,7,{16}1b-4b[16:1],8,{32}8,,,8,{16}1b-5[16:1],8,{32}8,,,4x,{16}1b-7[16:1],4,{32}4,,,4,{16}1b-4[16:1],3,
{32}3,,,3,{16}1b-6[16:1],2,{32}2,,,2,{16}1b,2,1/5h[16:1],3,1/5,7,1/5,3,1/5,7,
5/1,3,1/5,7,1/5,3,1/5,7,{32}1,7,3,5,1,7,3,5qq8[32:15],1qq4[16:7],7,3,5,1,7,3,5,
,,,,,,,,,,,,,,,,{8}7/3,{32}8/4-7[16:1],,,2/6,,,,,4/8-5[16:1],,,3,
,,,,8/4-7[16:1],,,1,,,,,8/4-1[16:1],,,3,{8}4/8,{32}4/8-3[16:1],,,5,,,,,8/4-1[16:1],,,7,
,,,,4/8-3[16:1],,,5,,,,,8/5-8[16:1],,,7,{8}4/8,{32}5/1-6[16:1],,,4,,,,,1/5-8[16:1],,,2,
,,,,5/1-6[16:1],,,4,,,,,5/1-4[16:1],,,2,{8}1/5,{32}1/5-2[16:1],,,8,,,,,5/1-4[16:1],,,6,
,,,,1/5-2[16:1],,,8w4[16:1],,,,,5/1,,,8b,,,,,8/4-7[16:1],,,2/6,,,,,4/8v5[16:1],,,3,
,,,,8/4q1b[32:3],,,1-5b[16:1],,,,,1/4-1[16:1],,,3,{8}4,{32}4/8v3[16:1],,,6,,,,,8/4v1[16:1],,,7,
,,,,4/8V25b[32:3],,,5-1b[16:1],,,,,8/5-8[16:1],,,7,{8}8,{32}5/1v6[16:1],,,3,,,,,1/5v8[16:1],,,2,
,,,,5/1<4b[32:3],,,4-8b[16:1],,,,,4/1-4[16:1],,,2,{8}1,{32}1/5-2[16:1],,,7,,,,,5/1-5[16:1]*v4[16:1],,,6,
,,,,{8}1,{32}3,5,1,7-1v2>3b[32:27],3,5,1,7-5[16:1],,,,,6,,,7x-4[16:1],,,,,7,,,7x<5[16:1],
,,,,7,,,7xv4[16:1],,,,,7>8v1-3b[16:13],,,7x-5[16:1],,,,,7,,,7x-4[16:1],,,,,7,,,7x<5[16:1],
,,,,7,,,7xv4[16:1],,,,,7pp3b[16:13],,,7x-5[16:1],,,,,7,,,7x-4[16:1],,,,,7,,,7x<5[16:1],
,,,,7,,,7xv4[16:1],,,,,7-1v3b[16:13],,,7x-5[16:1],,,,,7,,,7x-4[16:1],,,,,7,,,7x<5[16:1],
,,,,7,,,7x,,,,,{8}7h[16:1],{32},6/5,{16}2/1qq6b[16:11],{8}1/2x,5x,{32}2,,,2x>4[16:1],
,,,,2,,,2xv5[16:1],,,,,2x-7V16b[16:13],,,2x-4[16:1],,,,,2,,,2x-5[16:1],,,,,2,,,2x>4[16:1],
,,,,2x,,,2xv5[16:1],,,,,2-8<7v6b[16:13],,,2x-4[16:1],,,,,2,,,2x-5[16:1],,,,,2,,,2x>4[16:1],
,,,,2,,,2xv5[16:1],,,,,2xqq8-6b[16:13],,,2x-4[16:1],,,,,2,,,2x-5[16:1],,,,,2,,,2x>4[16:1],
,,,,2,,,2xv5[16:1],,,,,2,,,2x,{8}1b,4h[8:3],{16}6-2[16:1],2-7[16:1],7-3[16:1],3>5[32:5],
{4}6,Ch[8:1],{8}4/5,{16}8/2,{32}6,5,,3,{16}4,{8}1/8,
E7/E3,{16}E8/E2,{32}B6,B4,,B3,{16}B5,{8}B8/B1,1b,{16}6h[8:3],5,4-8[16:1],8-3[16:1],3-7[16:1],7>5[32:5],
{4}4,Ch[8:1],{16}7-5[16:1],5-1[16:1],1-3[16:1],3>5[8:1],7,4,{8}4h[16:1],
4,{16}2/8,{32}6,5,,3,{16}4,{8}1/8,{32}5h[16:1]/3h[16:1],,,4h[32:1]/2h[32:1],,,{16}7h[32:1]/8h[32:1],{32}5h[16:1]/1h[16:1],,,4h[32:1]/3h[32:1],,,{16}2h[32:1]/8h[32:1],
{32}6h[16:1]/5h[16:1],,,3h[32:1]/1h[32:1],,,{16}5h[32:1]/7h[32:1],{32}2h[16:1]/1h[16:1],,,6h[32:1]/4h[32:1],,,{16}7h[32:1]/8h[32:1],{32}4h[16:1]/2h[16:1],,,6h[32:1]/5h[32:1],,,{16}8h[32:1]/1h[32:1],{32}3h[16:1]/4h[16:1],,,6h[32:1]/8h[32:1],,,{16}4h[32:1]/1h[32:1],
{32}7h[16:1]/5h[16:1],,,1h[32:1]/3h[32:1],,,{16}4h[32:1]/6h[32:1],{32}2h[16:1]/3h[16:1],,,7h[32:1]/5h[32:1],,,{16}4h[32:1]/3h[32:1],1/5,3,1/5,7,1/5,3,1/5,7,
1/5,3,1/5,7,1/5,3,1/5,7,{32}1,3,5,7,1,3,5,7,1bxh,3bxh,5bxh,7bxh,1bxh,3bxh,5bxh,7bxh,
{8}B1fh[8:3]/B5fh[32:11]/A1fh[16:5]/A5fh[32:9]/E2fh[4:1]/E6fh[32:7]/E1fh[16:3]/E5fh[32:5]/D2fh[8:1]/D6fh[32:3]/D1fh[16:1]/D5fh[32:1],,,Cf,{32}2b,7,4,5,1,7,2,8,3,5,4,6,8,7,1,6,
2,4,3,8,4,7,5,6,3,4,1,7,5,6,1,8,2,7,3,5,1,7,5,6,4,5,1,4,2,8,5,7,
1,6,3,4,2,8,4,7,5,6,2,8,3,4,1,7,4,6,3,5,2,1,3,8,4,7,8,6,1,5,3,8,
4,7,5,6,4,5,3,4,2,8,1,7,4,5,3,6,2,4,3,8,4,7,5,6,3,4,2,8,4,6,1,7,
2,6,3,5,1,7,2,6,4,5,3,6,2,7,1,8,4,6,3,7,1,8,2,4,3,5,4,6,8,7,1,6,
2,5,3,8,4,7,5,6,1,4,2,5,3,6,4,7,2,1,3,8,4,6,3,5,2,6,1,7,4,6,1,7,
2,4,3,8,5,6,1,4,2,5,3,6,4,7,5,8,1,7,5,6,3,5,2,4,1,5,8,6,1,7,2,8,
3,7,4,6,2,7,1,6,8,5,1,6,2,7,1,8,2,4,3,8,5,6,1,4,3,7,4,6,3,5,2,4,
8,6,1,7,2,8,3,1,4x,4x,5x,5x,7x,8x,1x,2x,7b,3,5,4,8,2,7,1,6,4,5,3,1,2,8,3,
7,5,6,1,5,2,4,3,6,5,8,2,4,3,8,1,7,2,6,4,8,2,4,3,5,4,8,5,7,1,4,2,
8,3,6,5,7,1,5,2,4,3,7,1,6,5,8,2,5b,3,6,4,7,1,6,2,5,3,1,4,8,5,6,1,
5,2,4,3,5,4,6,5,7,1,8,2,5,4,6,3,7,5,6,1,5,2,4,3,6,5,7,1,5,3,8,2,
7,3,6,4,8,2,7,3,5,4,6,3,7,2,8,1,5b,3,6,2,8,1,7,5,6,4,5,3,1,2,8,3,
7,4,6,1,5,2,4,3,8,5,7,4,6,3,5,2,7b,1,6,2,5,3,6,4,7,3,8,2,5,3,8,2,
7,5,6,1,4,3,8,5,7,4,6,3,5,2,4,1,8b,2,4,3,6bx,4,7bx,5,8bx,4,1bx,3,8bx,2,7,1,
6,2,5,3,7,2,8,3,1,4,8,3,7,2,6,3,5,4,6,1,5,3,8,5,6,2,5,4,6,3,7,2,
8b,1,7b,2,6b,3,5b,4,8b,1b,8b,1b,1bx/8bx,8bx/1bx,8bx/1bx,8bx/1bx>2>3<4<5<6<7>8>1[32:245],{2}8bx/1bx<8>1<8>1<8>1<8>1<8>1<8>1<8>1<8>1<8>1<8>1<8>1<8>1<8>1<8>1<8>1<8>1<8>1<8>1>2<1>2<1>2<1>2<1>2<1>2<1>2<1>2<1>2<1>2<1>2<1>2<1>2<1>2<1>2<1>2<1>2<1>2<1>2<1>2<1>2<1>2<1>2<1>2<1>2>3>2>3>2>3>2>3>2>3>2>3>2>3>2>3>2>3>2>3>2>3>2>3>2>3>2>3>2>3>2>3>2>3>2>3>2>3>2>3>2>3>2>3>2>3>2>3<4>3<4>3<4>3<4>3<4>3<4>3<4>3<4>3<4>3<4>3<4>3<4>3<4>3<4>3<4>3<4>3<4>3<4>3<4>3<4>3<4>3<4>3<4>3<4<5>4<5>4<5>4<5>4<5>4<5>4<5>4<5>4<5>4<5>4<5>4<5>4<5>4<5>4<5>4<5>4<5>4<5>4<5>4<5>4<5>4<5>4<5>4<5>4<5<6>5<6>5<6>5<6>5<6>5<6>5<6>5<6>5<6>5<6>5<6>5<6>5<6>5<6>5<6>5<6>5<6>5<6>5<6>5<6>5<6>5<6>5<6>5<6>5<6<7<6<7<6<7<6<7<6<7<6<7<6<7<6<7<6<7<6<7<6<7<6<7<6<7<6<7<6<7<6<7<6<7<6<7<6<7<6<7<6<7<6<7<6<7<6<7>8<7>8<7>8<7>8<7>8<7>8<7>8<7>8<7>8<7>8<7>8<7>8<7>8<7>8<7>8<7>8>1[12:89],
{1},,,,,,,{4},{8},5bx-7-4-8-3-1-3-8-4-7-5[4:1],
6x,5bx,,6bx-8-5-1-4-2-4-1-5-8-6[4:1],
7x/5x,6bx,,7bx-1-6-2-5-3-5-2-6-1-7[4:1],6x/8x,7bx,,8bx-2-7-3-6-4-6-3-7-2-8[4:1],
7x/1x,8bx,,1bx-3-8-4-7-5-7-4-8-3-1[4:1],2x/8x,1bx,,2bx-4-1-5-8-6-8-5-1-4-2[4:1],
3x/1x,2bx,,3bx-5-2-6-1-7-1-6-2-5-3[4:1],4x/2x,3bx,,4bx-6-3-7-2-8-2-7-3-6-4[4:1],
5x/3x,4bx,,5bx,{32}5h[16:1]/3h[16:1],,,2h[32:1]/1h[32:1],,,{16}7h[32:1]/8h[32:1],{32}5h[16:1]/3h[16:1],,,8h[32:1]/2h[32:1],,,{16}6h[32:1]/7h[32:1],
{32}5h[16:1]/4h[16:1],,,3h[32:1]/1h[32:1],,,{16}5h[32:1]/8h[32:1],{32}4h[16:1]/3h[16:1],,,8h[32:1]/2h[32:1],,,{16}6h[32:1]/7h[32:1],{32}4h[16:1]/2h[16:1],,,6h[32:1]/5h[32:1],,,{16}8h[32:1]/1h[32:1],{32}3h[16:1]/4h[16:1],,,6h[32:1]/8h[32:1],,,{16}3h[32:1]/1h[32:1],
{32}6h[16:1]/5h[16:1],,,1h[32:1]/8h[32:1],,,{16}4h[32:1]/3h[32:1],{32}6h[16:1]/8h[16:1],,,1h[32:1]/2h[32:1],,,{16}4h[32:1]/3h[32:1],1/5,3,5/1,7,1/5,3,5/1,7,
1/5,3,5/1,7,1/5,3,5/1,7,{32}1/5,3,5/1,7,1/5,3,5/1,7,1/5,3,5/1,7,1/5,3,5/1,7,
{2}1bqq4[16:3]/5bqq8[16:3],{8}3b/7b,5h[8:1],{48}8,1,2,6,5,4,1,2,3,7,6,5,
2,3,4,1,2,3,{8}8h[8:1],{64}7,6,5,4,3,2,1,8,{8}7b,{16}5/6,7,8/1,{32}3,4,,6,{16}5,7/2,3/6,
4/5,{32}3,4,{16}1,{32}7,5,,2,{16}4,{8}1/8,6b/2b,4h[8:1],{48}1,8,7,3,4,5,8,7,6,2,3,4,
7,6,5,1,2,3,{8}7h[8:1],{64}2,3,4,5,6,7,8,1,{8}2b,{16}4/3,2,1/8,{32}6,5,,3,{16}4,2/7,6/3,
5/4,{32}6,5,6,5,,1,{16}8,7/2,{8}5/4,3b/7b,{48}2,1,8,7,6,5,1,8,7,5,4,3,8,7,6,4,3,2,
7,6,5,8,7,6,{8}1h[8:1],{64}2,3,4,5,6,7,8,1,{8}2b/6,{16}5/3,4/6,7/1,{32}2,4,,7,{16}5,8/1,7/2,
{8}3/6,{16}8/1,{32}4,5,,5,{16}4,{8}7/2,6b/2b,{48}7,8,1,2,3,4,1,2,3,7,6,5,2,3,4,8,7,6,
2,3,4,1,2,3,{8}8h[8:1],{64}7,6,5,4,3,2,1,8,{8}7b/3,{64}2,3,4,5,8,7,6,5,2,3,4,5,8,7,6,5,1,2,3,4,8,7,6,5,1,2,3,4,8,7,6,5,
8bx,1,2,3,8bx,7,6,5,8bx,1,2,3,8bx,7,6,5,7bx,8,1,2,8bx,7,6,5,7bx,8,1,2,8bx,7,6,5,
E
