&title=『トリックハート(魔术之心)』
&artist=MIMI feat.重音テトSV
&first=0
&des=XUYU
&lv_5=13+
&inote_5=(150)
{8},,,,,1-3-5-7-1[2:2],,,,,,,,5-1[2:1],,,,,,,,3,3,4,4,5,5,6,6,5-8[8:1],4,3,,,
1h[4:1],5,5,5pp5[4:1],,5qq5[4:1],,,,1-3[8:1],,1-7[8:1],,1-5[8:1],,1,,
6,6,5,4,3,2-5-7[4:1],,7-4-2[4:1],,,5,6,7,8,8-4[8:1],
,,,E2,B3,B5,E7,E3,E4,E6,E7,B3,E5,E6,E7,Ch[4:1],,5,6,7-4[8:1],,2h[4:1],,5,6,7,7,18,18,1v4[8:1]/8-4[8:1],27,18,,
{16}3b/6b,,,,2-8>3[4:1],,5,,6,,7,,7-4[8:1],,4,,7,,,,26,,3-8[8:1],5,5,,3,,6h[8:1],,,,
1-5[8:1],,28,,1,,6,6,4-1-4[4:1],,5,,6h[8:1],,,,6-8[8:1],,5,,3-1[8:1],,4,,5,,6,,7h[8:1],,,,5<7[8:1]/2,,3h[8:1],,5,,2,2,8-4[8:1],,17,,8,,1,,2,,3,,3-1-6[4:1],,,,6-4-8[4:1],,,,7hx[8:1],,,,7-4[8:1],,1,,7,,2,2,5v2>4[4:1],,5,,5v8<6[4:1],,,,,,,,4,,3,,2,,1-4-1[4:1],,1,,,,,,,,8b-4[8:1]/3,,2,,1h[8:1],,,,5-7[8:1]/1,,2,,3h[8:1],,,,
8b-4[8:1]/3,,2,,1h[8:1],,,,5-7[8:1]/1,,2,,3h[8:1],,,,8b-4[8:1]/3,,2,,1h[8:1],,,,
1-3-6[4:1],,,,6-8-3[4:1],,,,5,,5,,6,,7,,8-5[8:1],,,,,,,,1-5[8:1],,6,6,1,,8h[8:1],,
4>2[8:1],,4,,5,,5h[8:1],,
1-5[8:1],,6,6,1,,8h[8:1],,
4>2[8:1],,4,,6<8[8:1],,5,,
1-5[8:1],,1,,7-1[8:1],,7,,4,,3,,2,,1,,8,,7,,6,,45,,4v1[8:1]/5-1[8:1],,,,,,,,
26,,3,5,4-1-4[4:1],,5,,6,,7,,6,,5,,
73,,6,4,5-8-5[4:1],,4,,3,,2,,3,,4,,
25,,3,4,3,,2>4[8:1],,1,,2/7<5[8:1],,8,,2/7,,1,,1,,1v4[8:1],,28,,1,
,,,8,,8,,
73,,6,4,5-8-5[4:1],,4,,3,,2,,3,,4,,
26,,3,5,4-1-4[4:1],,5,,6,,7,,6,,5,,
74,,6,5,6,,7<5[8:1],,7,,
{24}4,3,2,1,,,
{16}1h[4:1],,5,,5,,5qq5[4:1],,5,,5pp5[4:1],,,,,,,,
2h[8:12],,,,3,,,,3,,,,3,,,,3,,,,3-6[8:1],,,,,,,,
7h[8:12],,,,6,,,,6,,,,6,,,,6,,,,6-3[8:1]b,,,,,,,,
,,4,,3,,2,,1h[8:1],,,,1-4[8:1],,,,14,,
,,5,,6,,7,,8,,8-4[8:1]b,,8,,85,,,,,,,,
2-4-7[4:1],,,,7-5-2[4:1]b,,,,2-4-7[4:1],,,,7-5-2[4:1]b,,,,2-4-7[4:1],,,,7-5-2[4:1]b,,,,,,,,,,,,5,,5,,6,,6,,7,,7,,8,,8,,1,,1,,2,,2,,3h[4:1],,,,5,,6,,7-4[8:1],,,,7,,,,2-5[8:1],,,,2,,,,6h[16:1]/4h[16:1],,1h[16:1]/8h[16:1],,3h[16:1]/5h[16:1],,8h[16:1]/1h[16:1],,6h[16:1]/3-8[8:1]b,,,,35,,,,
25,,3,4,3-8[8:1],,2,,3/7-4[8:1],,6,,7,,1h[8:1],,5-8[8:1],,2,2,5,,3,,4h[4:1],,,,
{8}8-5[8:1],3,8/2-5[8:1],1,2/6-8[8:1],7,6/3-6[8:1],4,3/7-4[8:1],8,7/3-1[8:1],2,3/5-1[8:1],6,5x,,
{16}8,,8,,
74,,6,5,6-1[8:1],,7,,6/2-5[8:1],,3,,2,,8h[8:1],,4-1[8:1],5,4,5,4,,6,,5h[4:1],,,,
{8}3b<5[8:1],2,8p4[8:1]/3,7,2-8[8:1]/8,3,2/5<8[8:1],4,3-6[8:1]/5,2,3/7-1[8:1],8,7/4>1[8:1],5,4/6-4[8:1],,6,,
{16}8b-4[8:1]/3b,,2,,1h[8:1],,,,5-7[8:1]/1,,2,,3h[8:1],,,,
8b-4[8:1]/3b,,2,,1h[8:1],,,,5-7[8:1]/1,,2,,3h[8:1],,,,
8b-4[8:1]/3b,,2,,1h[8:1],,,,5-7[8:1]/1,,2,,3h[8:1],,,,
2b-5[4:1],,2,,5-8-3[4:1],,5,,7h[4:1],,,,,,7,,
1-5[8:1],,5,5,1,,6h[4:1],,4,,3,,2,,1,,
1-5[8:1],,5,5,1,,6h[4:1],,4,,3,,2,,1,,
1-5[8:1],,1,,8-6[8:1],,8,,2-4[8:1],,2,,5,,5h[8:1],,1-4<5[4:1],,,,5-8>1[4:1]b,,,,6h[4:1],,,,,,,,
26,,3,5,4,,6,,7-5[8:1],,,,17,,2,,3,,4,,5,,6,,7,,6,,5,,4,,3-8[8:1],,,,35,,6,,7,,8,,1,,2,,3-8[8:1],,3,,7,,7h[8:1],,3,5,3h[16:1],,6,4,6h[16:1],,
4-1[8:1],,,5h[16:1],,,6h[16:1],,7-3[8:1],,,8h[16:1],,,1h[16:1],,2-6[8:1],,,3h[16:1],,,4h[16:1],,35,,3,,46,,6,,
4-1[8:1],,,5h[16:1],,,6h[16:1],,7-3[8:1],,,8h[16:1],,,1h[16:1],,1,,14,,1,,16,,1-4[8:1],,2,,1/5-8[8:1],,6,,5-3-6-2[1:2]b/1-7-2-6[1:2],,,,,,,,,,,,,,,,,,,,,,,,,,,,,,,,,,,,,,,,
6,,6,,6,,,,5,,5,,5,,,,
4h[8:1],,8,,6h[8:1],,1,,8<5[1:1]/4h[8:1],,,,4h[8:1],,,,4h[8:1],,,,4h[8:1],,,,4h[8:1],,,,4h[8:1],,,,4h[8:1],,,,4>1[4:3]/5,,,,5,,5,,5,,5,,5,,5,,5,,5,,1h[16:1]/5h[16:1],,1h[16:1]/5h[16:1],,2h[16:1]/6h[16:1],,3h[16:1]/7h[16:1],,4h[16:1]/8h[16:1],,,,
{32}8<5[8:1],,,,,,,,84,3,2,1,,,,,
{8}1b-5[8:1],8,1/7-2[8:1],6,3/7,4,3/8-5[8:1],
{16}4,4,
{8}8,4,46,,1b-5[8:1],1,1/8,{16}6,6,
{8}4-1[8:1],7h[4:1],4,,3-1[8:1],3,7-5[8:1],7,8-4[8:1],8,8,
,7,7,
{8}8-4[8:1],
{16}2,2,
{8}8,1,6-3[8:1]/2,5,6/1>4[8:1],
{16}2,,
{8}1/5<7[8:1],
{16}6,,
{8}5,3,4/8,,
1-5[8:1],,1/7-4[8:1],,7/3-8[8:1],,3/6-2[8:1],,6/1-5[8:1],,1/7-4[8:1],,7/3-8[8:1],,3/6-4[8:1],,,,
{16}8b-4[8:1]/3,,2,,1,,1,,5-7[8:1]b/1,,2,,3,,3,,
{16}8b-4[8:1]/3,,2,,1,,1,,5-7[8:1]b/1,,2,,3,,3,,{16}8b-4[8:1]/3,,2,,1,,1,,5-7[8:1]b/1,,2,,3,,3,,4-8[8:1],,4,,5-7[8:1],,5,,3h[8:1]/5,,,,1,,1,,
8-4[8:1],,4,4,8,,3h[8:1],,5-7[8:1],,4,,5/3,,4,,
8-4[8:1]/3,,4,4,8,,3h[8:1],,5-7[8:1],,4,,5/3-1[8:1],,4,,
8-4[8:1]/3,,7,,8/3-1[8:1],,2,,3/5-7[8:1],,6,,5/8-3[8:1],,1,,8/4,,4,,4q6[4:1]*p2[4:1],,53,,4,,E
