&title=99 Glooms
&artist=sta
&first=0.07999999
&lv_5=14.9
&des_5=Pagasus
&inote_5=
(185){4},,,,{1}B6f/2qq4[8:5]*q5[8:5],
,{16}D7,
B6,{8}D6,{16}D3,E2,{8}A2,{4}Cfh[64:1]/1s5b[24:7],{24}A8,E1,B1,C,B6,B5,
E5,A4,{4},,{24},{8}2h[4:1]/6z2[8:3],{4},,{8},4,
,8h[4:1],,C,
{4},{8}1,2,3,4,E1,E2,
E3,E4,8,1,2,3,7<3[4:1],7,
{32}7/A3,D3,A2,D2,A1,D1,A8,D8,A7,D7,A6,D6,A5,D5,A4,D4,A3,D3,A2,D2,{8}1/5p8<6[8:3]*q2>4[8:3],,5,
{4},{8},5h[8:1],,6pp5[4:1]/4qq5[4:1],,6/4,
{4},{8}1,8,7,6,{48}D1,E1,{12},{48}D8,E8,{12},{48}D7,
E7,{12},{48}D6,E6,{12},{8}7,6,5,4,{16}7,6,5,4,
{32}3/A7,D7,A6,D6,A5,D5,A4,D4,A3,D3,A2,D2,A1,D1,A8,D8,B7,D7,B6,D6,{8}1/5V71-6[8:3],,5,
3b,{4},{8}4>8q6[2:1],,4,,7,
{4},{8}8,7,6,1,2,3,
{16}3/7,2/6,1/5,4,1p3[8:1],{8},{16}8,{4}8,7pp1[8:1],
{16}7/4,5,6,7,8z4<5s1b[8:3],1,2,3,{2}4,
{16}8/4,7,6,5,4,3,{8}2q7b[8:1]*p5b[8:1],{4},{8},6,
{4}Ch[16:1],{8}B7/E8/B8,B2/E3/B3,,{24}B7,B6,{4},{24},{16}4bh,
5,4h,5,3,6h,3,6h,2h,7,2h,7,1h,6,,1h[16:5],
{4}5-8[8:1],5,5h[4:1]/1-4[8:1],1,
3h[4:1]/7-4b[8:1],7,7h[4:1]/3-8b[8:1],3,
{8}5,6,7,E1,E2,{16}E3,5,{4}4,
{8}6,3,{16}6,7,8,1,{8}3,6,3/5,4/6,
{4}5-1[8:1],{8}5/6,8<5[8:1],,1/8-4[8:1],,7/8,
{16}7,6,5,2,3,4,7,6,5,1,2,3,8,7,{8}6,
{4}5-8[8:1]/1v4[8:1],1/5,7v4[8:1]/3v8[8:1],7/3,
{8}6,2,7,1,6,3,{16}4/2,5,6,7,
{4}8h[4:1]/4-1[8:1],4,4h[4:1]/8-5[8:1],8,
6h[4:1]/2-5b[8:1],2,2h[4:1]/6-1b[8:1],6,
5V31-4[8:5]*V71-6[8:5],5b,{2},{8}1,
8,{16}1,7,2,6,3,5,4,5,{8}4,5,
{4}1bqq4[8:5],5,5,5,
8bqq5[8:5],3,3,3,
{8}3/6,4/7,5/8,7,6/3,5/2,4/1,3,
{16}5/2,4,3,2,5/1,6,7,8,5-1[12:1]/1-5[12:1],2/6,3/7,4/8,{64}1/5,C,{32}Cf,{1},,,,{4},,,{16},,,{12}4h,
5h,6h/3h,
{1},,Cfh[4:3],
{24}2bs6[0.4865##0.1622]/1bz5[0.4865##0.1622],3/8,7/4,5/6,{16},,,{48},{8}1b/2b,{4},{24}7bz3[0.4865##0.1622]/8bs4[0.4865##0.1622],6/1,2/5,4/3,{16},,,{48},{8}8b/7b,
{4},{24}2bh/8bh,3/7,4/6,5,{3},{24}7bz3[0.4865##0.1622]/8bs4[0.4865##0.1622],
6/1,2/5,4/3,{16},,,{48},{8}8b/7b,{4},{24}2bs6[0.4865##0.1622]/1bz5[0.4865##0.1622],3/8,7/4,5/6,{16},,,{48},{8}1b/2b,
{4},{16}7b-4[8:1]/1b-4[8:1],1/7,{8}7/1,{4}1/7,
{24}2b/1b,3,4,5,{16},,,{48},{24}7b/8b,6,5,{4}4,{24}2b/8b,3,4,5,{16},,,{48},{24}7b/1b,
6,5,{4}4,{24}2bh/8bh,3/7,6/4,5,{3},{6}7b-5[12:1],
4b-8[12:1],{12},1b-4[12:1],,6b-2[12:1],{6},8b-4[12:1],
{12}5b-1[12:1],{3},{12}7,4,6,3,5bw1b[12:1],4,6,
{4}5V71[4:1],{24}5/A1,D2,A2,D3,A3,D4,A4,D5,A5,D6,A6,D7,A7,D8,A8,5xh[8:1]/D1,{12},{24}B1,
B8,B7,B2,B3,B6,{4}Cf,{12}1,2,3,{48}8/4>1[4:1]*-8[4:1],{24},{48}7,{24},{16}6,5,
{24}4,E4,A3,E3,A2,E2,{8},6/2,{12}4,3,5,7,8,6,
{4}4-1[8:1],{24}4b/7,E4,B2,E2,{12},{4}8-5[8:1],{24}8b/2,E8,B6,E6,{12},{16}3,
6,4,7,{8}5,8b/4b,{16}6,3,5,2,{8}4,5b/1b,
{24}5,1,5,1,5,1,7h,3h,7h,3h,7h,3h,{16}7h,4,6,5,4,6,5,4,
{4}6V82[4:1],{8}2V46[4:1],4,{2},{8}1-5[8:1],
8-4[8:1],1,8-5-8[4:1]*-3-8[4:1],,8,{4},{24}1bh/7bh,
2/6,5/3,4,{12},3/5,3/5,3/5,{6}4,3/5,2/6,
{24}1/7,D2,A2,D3,A3,D4,A4,D5,A5,6bxh[8:1],{12},{16}4,3,2,1,6,7,{8}8,
4,3/5,{12}2-7[8:1]*-5[8:1],1,3,{2}2b,
{4}5-8[8:1]*-2[8:1],{24}A5,B6/B4,B7/B3,E8/E3,{12},{4}1q6[8:1]*p4[8:1],{24}A1,B8/B2,B4/B6,A6/A4,{12},{16}1,
5,3,7,5,8,4,6,2,4,1,5,3,6,4,8,
{24}1,8,1,8,1,8,2h,7h,2h,7h,2h,7h,{16}2h,6,4,5,6,4,5,6,
{4}3b>7[4:1],{8}7<3[4:1],6,{2},{4}1h,
8/2,{32}3h/7h,4h/6h,{16}5h,{8},{4}3b/7b,
2qq4[8:13],5h,B6/E6,6h,
B5/A5,4h,B6/A6,5h,
{16}8h,7h,6h,5h,7,6,5,4,6h,5h,4h,3h,5,4,3,2,
5,6,7,8,1/5,2,3,4,5/1,2,3,4,5/1,6,7,8,
{4}1/5pp3[8:13],2h,B1/E2,1h,
B2/A2,{24}3h,{6},{24}4,{4}B1/A1,2h,
{16}1,2,3,4,2h,3h,4h,5h,3,4,5,6,4h,5h,6h,7h,
4,3,2,1,8/4,7,6,5,4/8,7,6,5,4/8,3,2,1,
{4}4/8-5[8:1],8/4-1[8:1],{8}4/8,{16}7,8,7,8,6,1,
6,1,5,6,7,8,4,5,6,7,3,4,5,6,1,8,
{24}1,2,3,4,5,6,5,4,3,2,1,8,4,5,6,7,8,1,2,3,4,5,6,7,
{16}4/8,5,6,7,8/E6,E7,E8,E1,7/E2,8,1,2,3/E1,E2,E3,E4,
7/E5,2,8,1,7,2,8,1,7,2,8,1,7-2[8:1]*-4[8:1],2,8,1,
{4}7b,3w7b[8:1],A3f,{16}1,8,1,8,
1,8,7,6,1h,2h,3h,7,6,5,2h,3h,4h,8,7,6,
1,2,3,4,5/1,6,7,8,5-3>2[4:1]/1-7<6[4:1],2/6,3/7,4/8,{4}5/1,
,{8},C,,3h[4:1]/7h[4:1],{4},,{8},C,
,5h[4:1],{2},{8}1-5[8:1],
7,1,8-4[8:1],3,8,
2>5[8:1],7,2,7q4[8:1],2,7,1,2,
3b/7bV13[4:1],{4},{8}5,,2V46[4:1],,8,
{4},{8},1>5[4:1],,5p8[4:1],,7,
{4},{8}7-4[8:1],2,7,1-5[8:1],7,1,
6-2[8:1],3,6,4-8[8:1],7,4,{16}5,6,7,8,
{2}1/3q4[4:1],7pp5[4:1],
2q5[4:1],8qq4[4:1],
{4}2h[4:1],C,{8}2/7,6,{16}4,3,{8}5,
3/6,4,{16}6,5,4,3,{8}E8,E4,E2,E6,
{4}8/1q5q3[8:5],{8}7,E8,,D6,,E7,
{4}2/8v6-1[8:5],2,3,3,
8/4,{8}6,5,4,7,6,5,
{16}4,5,4,5,4,3,2,1,8,4,5,6,7/3,8/4,{8}1/5,
{4}4xh[4:1]/8x-5[8:1],A8,8h[4:1]/4-1[8:1],A4,
2h[4:1]/8-5b[8:1],A8,6h[4:1]/4-1b[8:1],A4,
{24}8pp4[8:5]*p6[8:5],7/1,2/6,3/5,{4},,,{12},{8}5,
4,{16}5,6,7,8,{8}1/5-3[8:1],3-7[8:1],{4}5,
{16}1,2,3,4,5/1,2,3,4,5,8,1,2,3,7,8,1,
2,5,4,3,2,6,5,4,3,7,6,5,4,3/7,2/6,1/5,
{2}8/4pp8[4:1],2q4[4:1],
{16}8,7,6,5,4,5,4,5,4,3,2,1,{24}8,7,6,5,4,3,
{4}2/6-3[8:1],A6,6h[4:1]/2-7[8:1],A2,
4h[4:1]/8-5b[8:1],A8,8h[4:1]/4-1b[8:1],A4,
{24}8bq5<7-4b[8:5]*p3>1-4b[8:5],7h/1h,{12}2h/6h,,{4}8b,{2},{8}3,
5,{16}1,2,3,4,5/8,7,6,5,{8}4/1,3/6,
{24}8,7,6,1,2,3,7,6,5,1,2,3,8,7,6,2,3,4,1,8,7,6/3,{12},{16}2,
5,3,6,4,7,5,8,4,7,3,6,{24}4,5,4,5,4,5,
{12}4,6b/3b,,2b/5b,,4b/7b,,5b/2b,,{4}4bz8<1[8:7]/5bs1>8b[8:7],
{1},{24}2b,
3h,4h,5h,2b,3h,4h,5h,8b,7,6,5,8w4b[12:1],7,6,5,{12},{4}8b,
{24}7b,6h,5h,4h,7b,6h,5h,4h,1b,2,3,4,1w5b[12:1],2,3,4,{12},{4}1b,
{24}8b,7,6,5,1b,2,3,4,7b,6,5,4,2b,3,4,5,{12},{4}Ch[6:1],
{24}2b/1xh[4:1],3,4,5,{6}6,{24},7b/8xh[4:1],6,5,4,3,{6},{24}1b/B1f,2h/8h,3/7,6/4,{12}5p2[6:11]*pp1[6:11],
