&title=dans l'obscurité
&artist=Chrono-Lexica
&first=0.26
&des=Miro-Miya
&lv_5=13+
&inote_5=(153)
{1},
||Intro
{2}6h[2:1],3h[2:1],
7h[2:1],2h[2:1],
{4}8V25[8:3],{2},{4}3-7[8:1],
{1}5xpp8[2:1]*qq2[2:1],
{2}1h[2:1],{4}7p3[4:1],{8},1,
{2}2q6[4:1],8,
{4}4-7[8:1],C1,5-2[8:1],,
{4}8^5>5-8[4:5],{8},1,{4}1h[1:1],,
{2},{4},4-8[8:1]/5-1[8:1],
{16}4b>5[2:1]/5b<4[2:1],,,,,,,,,,,,,,,,
{16}4qq5[2:1]/5pp4[2:1],,,4x/5x,,,,,,,,,,,,,
{96}D5f`A5/A4,E6/E4,B3/B6,B2/B7,E2/E8,A8/A1,{16},,,,,,,,,,,,,,,
{16}2hx[16:1]/4hx[8:1],,,3h[8:1]/5h[16:1],,,6/4,,7-4[8:1]/5-1[8:1],,,,,,,,
{16}2bx-5[8:1]/5bx,,3,4,2,,6,,7-4[8:1],5,6,,7,,3,,
{16}3V15[4:1],,8,8,3,,7,,6V84[4:1],6,4,,6,,3,,
{16}2h[16:1],5h[16:1],2h[16:1],5h[16:1],3h[16:1],6h[16:1],3h[16:1],6h[16:1],4h[16:1],7h[16:1],4h[16:1],7h[16:1],5h[16:1],8h[16:1],5h[16:1],8h[16:1],
{12}4x,7h[12:1],3,5x,2h[12:1],6,7x/1x,2,3,4x^1[8:1]/8xqq5[8:3],,,
||Bridge
{16}A4f/8b,,,,,,,,1,,6,4,5,3,7,,
{16}8bx-5[8:1],,,,84,,,,2,,4,3,5,2,6,,
{16}7,,48,,7,6,5-8[8:1]/3,,4,,5,,4,,3,,
{16}26,,3,4,2,4,1,,7,,6,5,7>6b[8:3],5,8,,
{16}2hx[4:1],,,,,,,,4,3,21,8,7,6,45,3,
{16}8x,7,65,4,7x,6,45,3,8,2,7,1,6,4,5,3,
{16}4xpp7[2:1],,,,,,1,,1^4[8:1],,,,,,,,
{16}5x,7,4,8b,,,4,2,5,1b,,,4x/5x,36,27,1b/8b,,,
{32}7x,8x,{16}7x,1,6,2,5,3,8x,1x,7,2,6,3,5,
{1}4b/C1f,
{16}56,,,1V74[16:5]/2-6[16:3],,,,,{4},{8},{16},{48},,1x,
||A
melo
{48}8x,7x>5[64:31],,{16},,,,,,,B6,,,,,,,,
{16}6q2[2:1],,,,,,,,B4,,,,,,,,
{16}4>6[2:1],,,,,,,,B5,,,,,,,,
{16}3xV51[2:1]/5xV37[2:1],,,,,,,,,,,,,,,{48},,6x,
7x,8hx[48:23],,{16},,,,,,,1h[2:1],,,,,,,,
{16}7h[2:1],,,,,,,,2h[2:1],,,,,,,{48},,,
6,5h[2:1],,{16},,,,,,{48},,,3,4,,{16},,,,,,,
{16}5pp8[2:1]/4qq1[2:1],,,,,,,,,,,,,,,,
{16}8^5[2:1],,,5,5,,4,,3,,,,2,,,,
{16}1-4[2:1],,,4,4,,5,,6,,,,7,,,,
{16}6h[4:1],,,5,5,,4,,3/7,,,,8^5[8:1]/4^1[8:1],,,,
{16}8-3-6[2:1]/4-7-2[2:1],,,,,,,,,,,,,,,,
{16}4^1[4:1],,,,1^6[4:1],,,,6^3[4:1],,,,,,,,
{16}7V58[2:1],,,,5,,,,4h[4:1],,,,,,,,
{16}85,,84,,83,,82,,1x,2,8,3b,,,6,5,
{16}7,4b,,,8,2,7,1,6,8,7,5,{32}6x,5,4,3,2,1,8,7,
||B
melo
{16}6bV48[4:1]/3b,,4,4,,,1,,3V51[4:1],,5,5,,,8,,
{16}7,2,6,3,45,,7V14[4:1]/2V85[4:1],,63,,,,,,,,
{16}5^8[8:1],,3,3,5-1[8:1],,4,,5^2[8:1],,7,7,5,,6,,
{16}5,6,7,8,2,3,4,5,8x,6,8,7,8,1,8,2,
{16}8x-3[8:1],,3-8[8:1],,8<2[4:1],,4,,4,,,,,,,,
{16}1-6[8:1],,6-1[8:1],,1>7[4:1],,5,,5,,,,,,,,
{16}5,1,6,2,7,3,8,4,1,5,8,4,7,3,6,2,
{16}5b^8b[8:1],,,2,,,3,,4b^1b[8:1],,,6,,,7,,
{48}8bx-4b[1.568##0.196],17,26,{16}3hx[16:11]/5hx[16:11],,,,,,,,,,,,,,,
||sabi
{16}8b/C1hf[128:1],,,,35,,71,,45,,2,4,3,,15,,
{16}7,4,5,3,6<2[16:3]/2v4[16:3],,51,,26,,,,,,,,
{16}3/5-1[8:1],,4,6,5,,7,,2/8-4[8:1],,7,1,8,,3,,
{16}2V86b[4:1],,,,6-2-4b[4:1],,5,,5,,,,,,5-2[8:1],6,
{16}7-4[8:1],,5,,7,,1-5[8:1],,8-6[8:1],,1,,8,,3-7[8:1],2,
{16}1-5[8:1],,3,,1,,8-4[8:1],,1-3[8:1],,8,,1,,{32},E5,E6,E7,
{16}E8h[4:1],,A1,,A2,,A3,,A4h[4:1],,E6,,E7,,E8,,
{16}2,,{48}8x,7,6,5h[16:1],,,{16},{48}2x,3,4,5h[16:1],,,{16},{32}6x,5x,6x,,{16}4x,7,3,6,2,5,
{16}1,,3b/5b,,7,5,6,5,8,4,5,4,1,3,5,5,
{16}2x,4,3,4,1,5,4,5,8,6,5,6,4,3,2,1,
{16}4^7b[8:1]/8^3b[8:1],,,,48,,,,8,4,6,5,7,1,5,4,
{16}1,3,4,2,5,3,6,4,7^4[8:1],,,,{48}7x/8bx/D8f,1,2,{16}3,,,
{16}5bx,,5h[4:1],,{24}6x,7,8,1,2,3,{16}4bx,,4h[4:1],,{24}3x,2,1,8,7,6,
{16}2b-8[8:1]/5,,6,,2b-6[8:1]/7,,6,,2b/5,,,,5,,4,,
{16}3>6[4:1],,3,,5,,4,,3>6b[4:1],,3,,5,,4,,
{16}4,,,63,,,1/8w4[8:1],,3/4w8b[8:1],,,,,,,,
{16}7x/2x,,,14,,,36,,5^2[8:1]/8^5[8:1],,,,,,,,
||bridge
{16}4bxqq4b[2:1]*pp4b[2:1]/Cf,,,,,,,,,,,,,,,,
{16}5pp4[2:1]/3qq4[2:1],,,35,,,,,,,,,,,,,
{96}A4f/A6,B6/B4,C1,B8/B2,A8/A2,,{16},,,,,,,,,,,,,,,
{16}7hx[16:1]/5hx[8:1],,,6h[8:1]/4h[16:1],,,3/5,,2-5b[8:1]/4-8b[8:1],,,,,,,,
{16}7bx^4[8:1]/4bx,,8,1,7,,3,,2^5[8:1],8,1,,2,,6,,
{16}7V51[4:1],,5,5,7,,4,,3V15[4:1],3,8,,3,,6,,
{16}7h[16:1],4h[16:1],7h[16:1],4h[16:1],6h[16:1],3h[16:1],6h[16:1],3h[16:1],5h[16:1],2h[16:1],5h[16:1],2h[16:1],4h[16:1],1h[16:1],4h[16:1],1h[16:1],
{12}6hx[12:1],2h[12:1],8h[12:1],3h[12:1],1h[12:1],5h[12:1],8h[12:1],4h[12:1],6h[12:1],3h[12:1],7h[12:1],1h[12:1],
{12}6,5,8,3,4,1,2b,4b/5b,7b/8b,6b/1b>1[6:5]*<1[6:5],,,
||Outro
(136)
{1}1bx,
{1}3-8[2:1]`6-1[2:1],
{1}7p3[2:1]`2q6[2:1],
{1}5z1[1:1]`4s8[1:1],
{2},6p1<5[1:1],8>4[2:1],,
4w8[1:1]*w8[1:1]/5w1[1:1]*w1[1:1],,
{6},,,,1xV74[4:1],2x-6[8:1],
&inote_6=
&inote_7=
