&title=神々が恋した幻想郷
&artist=上海アリス幻樂団
&first=0
&des=Acadm
&clock_count=4
&lv_2=3
&lv_3=7
&lv_4=11
&lv_5=13
&inote_2=(139){1},
,
{2}3,3,
{1}3,
{2}6,6,
{1}6,
{2}4,4,
{1}4,
{2}5,5,
(143){1}5,
(286){4},,,,
(143)
{1}3h[1:1]/4h[1:1],
{1},
{1}6h[1:1]/5h[1:1],
{1},
{1}2h[1:1]/1h[1:1],
{1},
{1}7h[1:1]/8h[1:1],
{1},
{2}3,3,
{1}4,
{2}6,6,
{1}5,
{2}2,2,
{1}1,
{2}7,7,
{1}8,
{2}3,3,
{2}4,4,
{1}4h[1:1]/5h[1:1],
{1},
{2}6,6,
{2}5,5,
{1}5h[1:1]/4h[1:1],
{1},
{1}34,
{1},
{1}56,
{1},
{2}2,2,
{1}1,
{2}7,7,
{1}8,
{2}3,3,
{1}3,
{2}6,6,
{1}6,
{2}2,2,
{1}2,
{2}7,7,
{1}78,
{2}2,2,
{1}2,
{2}7,7,
{1}7,
{2}3,3,
{1}3,
{1}6h[1:1]/5h[1:1],
{1},
{1}3h[1:2],
{1},
{1},
{1},
{1}6h[1:2],
{1},
{1},
{1},
{1}2h[1:2],
{1},
{1},
{1},
{1}7h[1:2],
{1},
{1},
{1},
{2}3,3,
{2}4,4,
{1}4h[1:1]/5h[1:1],
{1},
{2}6,6,
{2}5,5,
{1}5h[1:1]/4h[1:1],
{1},
{1}34,
{1},
{1}56,
{1},
{2}2,2,
{1}1,
{2}7,7,
{1}8,
{2}3,3,
{1}3,
{2}6,6,
{1}6,
{2}2,2,
{1}2,
{2}7,7,
{1}78,
{2}2,2,
{1}2,
{2}7,7,
{1}7,
{2}3,3,
{1}3,
{1}5h[1:1]/7h[1:1],
{1},
{1}2q5[4:5]*q5[4:5]/4,
{1},
{1}8b,
&inote_3=(139){1},
,
{4}3h[1:1]/4h[1:1],,,,
{4},,34,,
{4}5h[1:1]/6h[1:1],,,,
{4},,56,,
{4}3,3,3,,
{4}4,4,4,,
{4}5,5,5,,
(143){4}5h[1:1]/6h[1:1],,,,
(286){4},,,,
(143)
{4}3,3,3,,
{4}4,4,4,,
{4}6,6,6,,
{4}5,5,5,,
{4}2,2,2,,
{4}1,1,1,,
{4}7,7,7,,
{4}8,8,8,,
{4}3,3,34,,
{4}6,6,56,,
{4}2,2,12,,
{4}7,7,78,,
{4}2,2,7,7,
{4}3,3,6,6,
{1}4-1[4:3]/5-8[4:3],
{4},,27,27,
{4}2,2,3,4,
{1}5h[1:1],
{4}3,3,3h[1:1],,
{4}6,6,6,,
{4}7,7,6,5,
{1}4h[1:1],
{4}6,6,6h[1:1],,
{4}3,3,3,,
{1}1-4[4:3],
{1},
{1}8-5[4:3],
{1},
{1}4>1[4:3],
{1},
{1}5<8[4:3],
{1},
{4}2,2,3,3,
{4}4,4,45,,
{4}7,7,6,6,
{4}5,5,54,,
{4}34,34,34,,
{4}56,56,56,,
{1}4-1[4:3]/5-8[4:3],
{1},
{4}6,6,7,7,
{4}8,8,81,,
{4}3,3,2,2,
{4}1,1,18,,
{4}78,78,78,,
{4}12,12,12,,
{1}8-5[4:3]/1-4[4:3],
{1},
{1}3>4[4:7],
{1},
{1},
{4}34,34,34,,
{1}6<5[4:7],
{1},
{1},
{4}65,65,65,,
{1}2>1[4:7],
{1},
{1},
{4}21,21,21,,
{1}7<8[4:7],
{1},
{1},
{4}78,78,78,,
{4}2,2,3,4,
{1}5h[1:1],
{4}3,3,4h[1:1],,
{4}6,6,5,,
{4}7,7,6,5,
{1}4h[1:1],
{4}6,6,5h[1:1],,
{4}3,3,4,,
{1}1v4[4:3],
{1},
{1}8v5[4:3],
{1},
{1}4>1[4:3],
{1},
{1}5<8[4:3],
{1},
{4}2,2,3,3,
{4}4,5,45,,
{4}7,7,6,6,
{4}5,4,54,,
{4}34,34,25,,
{4}56,56,47,,
{1}4-1[4:3]/5-8[4:3],
{2},27,
{4}3,3,2,2,
{4}1,8,18,,
{4}6,6,7,7,
{4}8,1,81,,
{4}21,21,38,,
{4}87,87,16,,
{1}1-4[4:3]/8-5[4:3],
{2},36,
{1}1h[2:1]/8h[2:1],
{1}2q5[4:3]*q5[4:3]/7,
{1}8b,
&inote_4=(139){1},
,
{8}1-5[8:1],,,,7,5,6,4,
{1}5qq6[4:1],
{8}8-4[8:1],,2,,2,4,3,5,
{8}4pp3[4:1],,,,,7h[8:1],6h[8:1],5h[8:1],
{8}4h[8:3],5,,5,,2h[8:1],3h[8:1],4h[8:1],
{8}5h[8:3],4,,4,,,56,47,
{2}3-8[8:1]/8-3[8:1],4-7[8:1]/7-4[8:1],
(143){1}5>7[2:1]/6<4[2:1],
(286){8},,6,5,6,,,,
(143)
{8}4>1[8:1],,8,7h[4:1],,8,8,,
{4}1-5[8:1],7,8-4[8:1],2,
{8}1>4[8:1],,5,6h[4:1],,5,5,,
{4}4-8[8:1],6,5-1[8:1],3,
{4}2-5[8:1],1,8-3[8:1],1,
{4}2h[4:1],3h[4:1],4h[4:1],5h[4:1],
{8}6-2[8:1],,7,7h[4:1],,8,8h[4:1],,
{4}1h[4:1],2h[4:1],3h[4:1],4h[4:1],
{8}3p7[8:1],7,6,5h[4:1],,3h[8:1],5h[8:1],3,
{8}6q2[8:1],2,3,4h[4:1],,6h[8:1],4h[8:1],6,
{8}7-4[8:1],4,3,2h[4:1],,4h[8:1],2h[8:1],4,
{8}2-5[8:1],5,6,7h[4:1],,5h[8:1],7h[8:1],5,
{8}4qq8[2:1],,5,6,,7,6>7[8:3],,
{4}3h[2:1],,4,53,
{4}6pp4[2:1]/2qq4[2:1],,,,
{16}4,,4,,35,,35,,2,6,2,6,2,,,,
{16}3qq1[6:1],,,,,,,,7h[2:1],,,6,,,5,,
{8}4>2[8:1],,,,16,5,4,,
{8}3h[4:1],,1h[4:1],,4h[4:1],,5,5,
{8},6,7,8,1,2h[4:1],,7,
{16}7qq5[6:1],,,,,,,,3h[2:1],,,2,,,1,,
{16}8<6[8:1],,,,,,,,52,,,1,,,8,,
{4}7h[4:1],6h[4:1],5h[4:1],4h[4:1],
{4}3-7[8:1],1qq5[2:1],,,
{1}8v3[2:1]*v5[2:1],
{16}2-6[8:1]/6-2[8:1],,,,,,,,4,,,3,,,2,,
{1}1v4[2:1]*v6[2:1],
{16}7-3[8:1]/3-7[8:1],,,,,,,,4,5,4,5,4,,,,
{16}1,,,2,,,3h[2:1],,7,,,6,,,5,,
{16}4v7[8:1]*v1[8:1],,,,,,,,26,,,17,,,8,,
{16}8-4[8:1],,,3,,,2,,1-5[8:1],,,6,,,7,,
{4}8v3[8:1],1v6[8:1],7p2[8:1],,
{8}1-5[8:1]/8,,,7,8,1,2,3,
{8}4>7[6:1],,,,6,,6,7,
{8}8-4[8:1]/1,,3,2,1,8,7,6,
{8}5p4[4:1],,,,,1,2,3,
{8}4/5<8[4:1],,,,,8,1,2,
{8}3/4<7[4:1],,,,,,12,38,
{8}4>1[4:1]/7<4[4:1],,,,,16,7qq4[8:3]/8pp3[8:3],78,
{8},,,,,27,27,18,
{8}8-4[8:1]/1,,,2,1,8,7,6,
{8}5<2[6:1],,,,3,,3,2,
{8}1-5[8:1]/8,,6,7,8,1,2,3,
{8}4q5[4:1],,,,,8,7,6,
{8}5/4>1[4:1],,,,,1,8,7,
{8}6/5>2[4:1],,,,,43,43,25,
{2}1-6[8:1]/6-1[8:1],2-5[8:1]/5-2[8:1],
{1}4<2[2:1]/3>5[2:1],
{8}34,,2,2,1,1,3,3,
{8}4h[4:1],,5h[4:1],,6h[4:1],,5,5,
{1}5p3[2:1],
{12}6,5,6,5,,,3,4,3,4,,,
{8}34,,3,3,2,2,1,1,
{8}8h[4:1],,7h[4:1],,6,6,5,5,
{8}4pp6[4:1],,,,,,,4,
{8}5,6,7,8,1,2,3,4,
{8}65,,7,7,8,8,6,6,
{8}5h[4:1],,4h[4:1],,3h[4:1],,4,4,
{1}4q6[2:1],
{12}3,4,3,4,,,6,5,6,5,,,
{8}65,,6,6,5,5,4,4,
{8}3h[4:1],,4h[4:1],,5h[4:1],,6,6,
{8}6-2[8:1],,4h[4:3],,,,,,
{8}5,5,5p2[8:3],5,,,,,
{16}7qq5[6:1],,,,,,,,3h[2:1],,,4,,,5,,
{8}6<8[8:1],,,,28,3,4,,
{8}5h[4:1],,2h[4:1],,3h[4:1],,4,4,
{8},2,1,3,8,4h[4:1],,5,
{16}3qq1[6:1],,,,,,,,6h[2:1],,,7,,,8,,
{16}1>3[8:1],,,,,,,,36,,,7,,,8,,
{4}2h[4:1],4h[4:1],6h[4:1],8h[4:1],
{4}1>5[8:1],7pp3[2:1],,,
{1}4w8[2:1],
{16}6p2[8:1]/2q6[8:1],,,,,,,,8,,,7,,,6,,
{1}5w1[2:1],
{16}3q7[8:1]/7p3[8:1],,,,,,,,8,1,8,1,8,,,,
{16}8,,,7,,,6h[2:1],,1,,,2,,,3,,
{16}4-7[8:1]/5-2[8:1],,,,,,,,36,,,27,,,18,,
{16}1-5[8:1]/8,,,6,,,7,,1/8-4[8:1],,,3,,,2,,
{4}1v6[8:1],8v3[8:1],2>7[8:1],,
{8}8-4[8:1]/1,,,2,1,8,7,6,
{8}5<2[6:1],,4,4,3,,3,2,
{8}1-5[8:1]/8,,6,7,8,1,2,3,
{8}4qq5[4:1],,,,,8,7,6,
{8}5/4>1[4:1],6,5,6,,1,8,7,
{8}6/5>2[4:1],7,6,7,,,87,61,
{8}5<8[4:1]/2>5[4:1],,,,,83,2pp5[8:3]/1qq6[8:3],21,
{8},,,,,72,72,81,
{8}1-5[8:1]/8,,,7,8,1,2,3,
{8}4>7[6:1],,5,5,6,,6,7,
{8}8-4[8:1]/1,,3,2,1,8,7,6,
{8}5p4[4:1],,,,,1,2,3,
{8}4/5<8[4:1],3,4,3,,8,1,2,
{8}3/4<7[4:1],2,3,2,,56,56,74,
{2}8v3[8:1]/3v8[8:1],7<4[8:1]/4<7[8:1],
{1}5qq2[2:1]/6pp1[2:1],
{2}4-6[12:1]/6-4[12:1],3-7[8:1]/7-3[8:1],
{2}2/8h[2:1],2q5[4:1]*q5[4:1],
{1}8b,
&inote_5=(139){1},
{8},,,,,5,5,6h[2:1],
{8}8b,,,2h[8:1],3h[8:1],4h[8:1],5h[8:1],6h[8:1],
{8}5V71[4:1],,,,,,3h[8:1],2h[8:1],
{2}1b>4[4:1],8b<5[4:1],
{8}1bw5[4:1],,,,,8,7,6,
{8}5h[8:1],4h[8:1],5h[8:1],6h[8:1],5h[8:1],4,6,5,
{8}4h[8:1],5h[8:1],4h[8:1],3h[8:1],4,5,6,7,
{2}8>3[8:1]/7<4[8:1],1>4[8:1]/8<5[8:1],
(143){16}21,,2,1,3,8,4,7,5,6,4,5,3,4,2,3,
(286){1}1pp3[143#8:1],
(143)
{8}7<4[8:1],,8,8qq6[6:1],,1,1,,
{16}3h[16:3],,,1,2h[8:1],,4<7[8:1],,,,3,,3,,,,
{8}2>5[8:1],,1,1pp3[6:1],,8,8,,
{16}6h[16:3],,,8,7h[8:1],,5>2[8:1],,,,6,,6,,7,,
{8}8<5[8:1],,1,1v7[8:1],,6,6>3[4:1],,
{4}3>8[4:1],8<5[4:1],5>2[4:1],2,
{16}1-5[8:1],,,8,1,,7-3[8:1],,,,2,,1>4[8:1],,8,,
{16}7-3[8:1],,7,,2>5[8:1],,2,,6,,6h[8:1],,5,7,5,7,
{8}5,47,3,26,3,47,3,26,
{8}1,14,2,26,1,14,2,26,
{8}1,83,7,62,7,83,7,62,
{8}5,58,6,62,5,58,6,62,
{16}3,,24,,5,4,6,,4,,35,,2,,35,,
{16}6,,75,,4,5,3,,5,,64,,7,,64,,
{8}3,34,6,56,3,24,6,57,
{16}3,,3,,34,,34,,2,5,2,5,1,6,1,6,
{16}8b-4[8:1],,,,7h[4:1],,,,6h[16:3],,,5h[16:3],,,4,,
{8}4-8[8:1],,3h[4:1],,1h[8:1],2h[8:1],3qq7[8:7],,
{8}1,,2,,3,,4,4,
{8},4-6[8:1],6V41[24:5],4,7,7-4[8:1],,,
{16}3-7[8:1],,,,2h[4:1],,,,1h[16:3],,,8h[16:3],,,7,,
{16}7-3[8:1],,,,6h[4:1],,,,4h[16:3],,,5h[16:3],,,6,,
{4}6>3[8:1],8-5[8:1],2<7[8:1],4p1[8:3],
{16}34,,,,,,,,3,4,2,5,1,6,8,7h[16:7],
{16}8,,,1,,,2,,1/8h[8:3],,,2,,,3,,
{16}1h[4:1]/2>4[8:1],,,,,,,,5h[16:3],,,6h[16:3],,,7,,
{4}7-4[8:1],78,1-5[8:1],18,
{16}3-8[8:1]/7-5[8:1],,,,,,,,7,,{24}8v2[16:1],7,8,7,,,,,,
{16}7,,5,6,,4,5,,6,,4,5,,3,4,,
{16}54,,3,4,3,,2,4,3,5,4,,7,5,7,5,
{16}7,,,46,,,37,,4,6,3,7,,28,28,,
{16}2,8,3,7,2,8,3,7,{32}2,3,4,5,6,7,8,1,{8}2-6[8:1]/6b,,
{16}26,,,,78,,1,8,1V37[24:5],,3,,4>1[8:1],,5,,
{16}4,,,,5,,5,6,7,,,,87,,61,,
{16}5<8[8:1]/2,,,,3,,3,2,{384}1,1!V72[24:5],,,
,,,,
,,,,{32},{16},7,,6,,5,,
{16}6b,,,,6,,6,7,8,,2-6[8:1],,1-5[8:1],,2,,
{8}1,3,,24,,7-3[8:1],8-4[8:1],7,
{8}8,6,,57,,47,{384}3q6[2:1]/8$,8!p5[2:1],,,
,,,,
,,,,
,,,,{24},,{8}21,
{8}38,,,,,34,25,16,
{16}7<4[8:1],8,6,1,7,,,,,,12,,12,,38,,
{16}7b/4b,,,,21,,8,1,8V62[24:5],,6,,5<8[8:1],,4,,
{16}5,,,,4,,4,3,2,,,,12,,38,,
{16}4>1[8:1]/7b,,,,6,,6,7,8b,,2,,3,,4,,
{16}1b/3,,,,3,,3,2,1,,7<4[8:1],,8>3[8:1],,7,,
{8}8,6,,57,,2>5[8:1],1<6[8:1],2,
{8}1,3,,24,,52,6-3[8:1]/1-4[8:1],78,
{4}61,3-6[8:1]/8-5[8:1],38,4qq1[4:3]/5pp8[4:3],
{1}45,
{16}56,,,,6,5,7,4,8,3,1,2,8,3,7,4,
{16}6,,2,4,3,,5,,6,,6,5,{12}7,6,5,
{4}4qq7[2:1],6h[2:1],,,
{12}1,4,3,1,4,5,1,4,3,1,4,5,
{16}1b,,,,3,4,2,5,3,4,2,5,2,6,2,7,
{16}1,8,2,7,2qq2[4:1],1,3,8,2pp2[4:1],,,,,,,,
{16}6h[8:7],,,,,,,,,,,,,,5,6,
{16}4,7,3,8,2,1,2,1,2,8,1,7,2,6,3,5,
{16}4,,,,3,4,2,5,1,6,8,7,1,6,2,5,
{16}3,,7,5,6,,4,,3,,3,4,{12}2,3,4,
{4}5pp2[2:1],3h[2:1],,,
{12}8,5,6,8,5,4,8,5,6,8,5,4,
{16}8b,,,,6,5,7,4,6,5,6,4,5,3,6,4,
{16}5,,2,4,3,,5,,6,,1,8,{12}2,6,3,
{4}5h[2:3],4,,4,
{16}4,,4,,4,,4,,4,5,4,5,4,5,4,5,
{16}4-8[8:1],,,,5,,,,7h[16:3],,,6h[16:3],,,5,,
{8}5-1[8:1],,2,,2h[8:1],3h[8:1],4qq8[8:7],,
{8}8,,7,,6,,5,5,
{8},8-6[8:1],6V83[24:5],8,5,5-8[8:1],,,
{16}2-6[8:1],,,,3h[4:1],,,,4h[16:3],,,5h[16:3],,,6,,
{16}6-2[8:1],,,,7h[4:1],,,,1h[16:3],,,8h[16:3],,,7,,
{4}7<4[8:1],1-6[8:1],3>8[8:1],5q8[8:3],
{16}45,,,,,,,,4,5,3,6,2,7,1,8h[16:7],
{16}1,,,2,,,3,,2/1h[8:3],,,3,,,4,,
{16}2/3<5[8:1],,,,,,,,5h[16:3],,,6h[16:3],,,7,,
{4}7<4[8:1],78,1q5[8:1],18,
{16}3h[4:1]/7h[4:1],,,,,,,,6,4,6,4,6,4,6,4,
{16}7,,6,4,,5,3,,2,,3,5,,4,6,,
{16}45,,6,5,6,,7,5,6,4,5,3,4,2,4,2,
{16}4,,,53,,,62,,5,3,6,2,,71,71,,
{16}7,1,6,2,7,1,6,2,{32}7,6,5,4,3,2,1,8,7,6,5,4,3,2,1,8,
{16}7/3b,,,,21,,8,1,8V62[24:5],,6,,5q1[8:1],,4,,
{16}5,,,,48,,4,3,2,,,,12,,38,,
{16}4>1[8:1]/7,,,,46,,6,7,8h[8:1],,2h[8:1],,4h[8:1],,6h[8:1],,
{16}8p4[8:1],,,,38,,3,2,1,,7-3[8:1],,8-4[8:1],,7-5[12:1],,
{8}8,7-1[12:1],,73,,2-6[8:1],1-5[8:1],2-4[12:1],
{8}1,2-8[12:1],,26,,52,6>8[8:3]/1>7[8:3],78,
{8}61,,,,,65,74,83,
{16}2-6[8:1],1,3,8,2,,,,,,87,,87,,61,,
{16}2b/5b,,,,78,,1,8,1V37[24:5],,3,,4p8[8:1],,5,,
{16}4,,,,51,,5,6,7,,,,87,,61,,
{16}5<8[8:1]/2b,,,,53,,3,2,1b,,7h[8:1],,5h[8:1],,3h[8:1],,
{16}1bq5[8:1],,,,61,,6,7,8,,2>5[8:1],,1<6[8:1],,2v7[8:1],,
{8}1,2-5[8:1],,26,,7<4[8:1],8>3[8:1],7v2[8:1],
{8}8,7-4[8:1],,73,,47,3-6[8:1]/8-5[8:1],21,
{8}3b/8b,,,{24}3,4,3,4b,,,,,,,,,6,5,6,
{8}5b<3[2:1],,,,,5,5,6,
{16}4b/7,,,,,,56,56,5b/6b,,,47,,,38,,
{16}2b,1,2,1,2,1,2,1,2q5[4:1]*q5[4:1],1,2,1,2,,,,
{1}8b,
