&title=DADDY
&artist=PSY
&first=0.323
&des=Kurage
&lv_5=13
&inote_5=(132)
{16}4h[16:3],,,3h[16:3],,,2,,{8}4,5,6,5,
{16}4h[16:3],,,3h[16:3],,,2,,{4}1-4[8:1],1b,
{16}5h[16:3],,,6h[16:3],,,7,,{4}8-5[8:1],{8},3h[4:1],
{8}4,6h[4:1],5,4x,4x,4x,8b,,
{4}3xV52[16:7],E8,C,E4,{4}6>3[4:1],E5,C,1b/8b,
{4}6xV47[16:7],E2,C,E6,{4}3-1[8:1],6-8[8:1],C,8b/1b,
{8}2,2,24,5,4h[16:3]/6,{16},3,{8},1,5,5,65,4,3/5h[16:3],{16},6,,6,5,,
{8}3,3,45,6,57,3,24,1,{16}5,3,4,2,{8}8,17,2-6[8:1]/6,,8b,,
{8}7,7,75,4,5h[16:3]/3,{16},6,{8},8,4,{16}4,5,{8}3,5,6/4h[16:3],{16},3,,3,4,,
{8}6,6,54,3,4h[16:3]/2,{16},5,{8},36,{16}7,5,,2,4,,8,8,1,7,3,5,{4}1b,
{8}
26,5h[4:1],4v7[8:1],3h[8:3],4x,,8,2,
17,6h[4:1],4-1[8:1],2h[8:3],4x,,8<3[32:7],4,
1x,,8-4[8:1],8,7<4[8:1],7,1x,,
21,{16}3,4,{8}2,6h[4:1],8,5,4b/1b,,
{8}
78,16,8-3[8:1]/7-4[8:1],16,87,,65,7,
34,25,4-7[8:1]/3-8[8:1],52,43,,1>6[32:7],5,
8x,,1-5[8:1],1,2>5[8:1],2,8x,,{16}7,7,5,5,6,6,2,2,4,4,3,3,{4}5b-8[8:1],
{4}3<2[4:2],,,5-8[8:1],3p2[4:2],,,8-5[8:1],
{4}2<3[4:2],,,8-5[8:1],2w6[4:1],,{8},4,{4}4-1[8:1],
{4}7pp7[8:3]*<3[8:3],,,{4}5-8[8:1],2qq2[8:3]*>6[8:3],,,4qq1[4:2],
{4}5pp8[4:2],,,1>8[4:2],{16}E5,,,C,,,E1,,{8},5x,5x,5x,
{4}6-8[32:3]/4,4-2[32:3]/6,{8}4/5-7[32:3],6x,5/4-2[32:3],3x,
{4}4/5-8[8:1],5/4-1[8:1],{8}45,8x,2b/7b,,
{4}3-1[32:3]/5,5-7[32:3]/3,{8}5/4-2[32:3],3x,4/5-7[32:3],6x,
{4}5/4-8[8:1],4/5w1[8:1],{8}5,,7b/2b,,
{8}18,1,13,{16}3,2,{8}3,2x/4x,4x/5x,5x/7x,
{8}81,8,86,{16}6,7,{8}6,7x/5x,5b/4b,4x/2x,
{8}18,36,18,{16}4,5,{8}4,2x/7x,4x/5x,1x/8x,
{16}2,2,4,4,6,6,8,8,{32}1,2,3,4,5,6,7,8,{4}Cf,
{4},{8},85,5>8[8:1]/8-5[8:1],,5b/8b,,
{8}
2>5[8:1],3,1v6[8:1],7,2>5[8:1],3,1v6[8:1],7,
2>5[8:1],3,1,7,28,4x/5x,2b/8b,4x/5x,
3-7[8:1],,3h[4:3],,B8,B6,B2,B4,
2v4[8:1]*<6[8:1],,,,5>8[8:1]/8-5[8:1],4x/7x,5b/8b,,
2>5[8:1],3,1v6[8:1],7,2>5[8:1],3,1v6[8:1],7,
2>5[8:1],3,1,7,28,4x/5x,2b/8b,4x/5x,
3x-7[8:1],,3xh[8:1],,B8/3xh[8:1],B6,B2/3xh[8:1],B4,
{16}2,2,3,3,4,4,5,5,6,6,7,7,{4}Cf,
{4}8-6[8:1]/1-5[8:1],8x-3[8:1]/1x,{16}8-5[8:1],,,4,8,,2,,
{4}1-3[8:1]/8-4[8:1],1x-6[8:1]/8x,{16}1-4[8:1],,,5,1b,,7,,
{4}8<5[8:1]/1>4[8:1],8x-3[8:1]/1x-6[8:1],81,{8}5-8[8:1],8x>5[32:5],
{8},,,6,5>8[8:1]/8-5[8:1],4x/7x,5b/8b,,
{4}7-5[8:1]/8-4[8:1],7x-2[8:1]/8x,{16}7-4[8:1],,,3,7,,1,,
{4}2-4[8:1]/1-5[8:1],2x-7[8:1]/1x,{16}2-5[8:1],,,6,2b,,8,,
{4}8<5[8:1]/1-5[8:1],8x-4[8:1]/1x>4[8:1],81,{8}5-8[8:1],8x>5[32:5],
{8},,,6,5>8[8:1]/8-5[8:1],4x/7x,5b/8b,,
{16}7,7,5,5,3,3,1,1,{32}8,7,6,5,4,3,2,1,{4}Cf,
{1}B1/B2/B3/B4/E8/B7/B6/E6/B8/B5,,
