&title=Makka
&artist=ゆよゆっぺ feat. 夏色花梨
&first=0.034
&des_1=-
&des_2=-
&des_3=-
&des_4=-
&des_5=-
&lv_5=14+
&des_6=-
&des_7=-
&des=-
&demo_start=46.639
&inote_5=(180)
{1},,,
{8}5,5,3h[8:1],5,3h[8:1],5,5,2h[8:1],
{8}5,5,3h[8:1],5,3h[8:1],5,5,1h[8:1],
{8}5,5,3h[8:1],5,3h[8:1],5h[8:1],4h[8:1],6h[8:1],
{8}2h[8:1],5,4h[8:1],7,1h[8:1],6,3h[8:1],8,
{8}4,4,6h[8:1],4,6h[8:1],4,{16}5,7,5,7,
{16}4,,4,,6h[8:1],,4,,3,5,3,,6,5,8h[8:1],,
{16}4,,4,,{32}E7,B6,B5,E5,1x,,,,E3,B3,B4,E5,8x,,,,E7,B6,B5,,B1,B2,E3,,
{8}7h[8:1],1h[8:1],5h[8:1],3h[8:1],2-6[8:1],1,8w4[8:1]b/Cf,,
{16}8b,,,,3x,4,2,,3x,5,,5,3x,,5,4,
{16}6x,,7,5,6x,5,7,4,6xh[8:1],,4h[8:1],,2xh[8:1],,4h[8:1],,
{16}5x,,6,5,7x,,,2,4/2x,,,7,5/7x,,1,8,
{16}7x/2x,,3/5,3/5,,4/6,4/6,,3/5,3/5,,2/7,2^4[8:1]/7,,1/8,,
{16}2b/8b,7,6h[8:7],,,5,5,,4x,4,,3,3,,2,3,
{16}4xh[4:1],,7,7,,8,1,8,2xh[8:1],,7h[8:1],,4h[8:1],,8h[8:1],,
{16}2,1,2,1,2-5[8:1],1,2,1,2x,,8,8,,3,4,3,
{16}5h[16:1]/2h[16:1],,,1h[16:1]/7h[16:1],,,6h[16:1]/4h[16:1],,,8h[16:1]/3h[16:1],,,{32}7x,6x,5x,4x,3x,2x,1x,8x,
{8}7h[2:1]x/2h[8:1],,2h[8:1],,2,4,3,5,
{8}6h[8:1]/3h[2:1],,6h[8:1],,6,5,4,5,
{8}6h[2:1]/4h[8:1],,4h[8:1],,3,5,4,6,
{4}5v6-8[8:3]*-1^2-4[8:3],,,5-1-4-2[8:3],
{8}8h[8:1],,8h[8:1],,7,7,6-8-5-1[8:3],5,
{8}4h[8:1],,4h[8:1],,3,2,1-5-2-4[8:3],8,
{8}7h[8:1],,7h[8:1],,6,5,4,3,
{24}2h[8:1]/8b,7,6,5,,,7p3[8:1]/1b,2,3,4,,,E1/B1/E2,,,,,,5-1[8:1]b,,,,,,
{8}2b-4[8:1],,2/8-6[8:1],1,8/4-8[8:1],5,4/8^3[8:1]b,{16}7x,6x,
{8}5x-7[8:1],,3-1[8:1]/5,4,3/7-3[8:1],8,3^6[8:1]b,{16}2x,1x,
{8}8x-4[8:1],,7-3[8:1]/8,,6-2[8:1]/7,,5-1[8:1]b/6,,
{16}4b/5,,3,,2/8b,,6,,3b,4,3,4,2,5,2,5,
{6}E1,E8,E7,E6,E5,E4,
{6}E3/6,7,8,{4}1^4[8:1],7,
{16}8b,5,6,5,6h[8:1],,8b,4,3,4,3h[8:1],,8b,5,6,5,
{16}6h[8:1],,8b,4,3,4,3w7[4:1]b,,,,,,,,,,
{8}1b-5[8:1]/5b,2,1/6-1-4[4:1]b,7,6/4,3,2x-6[8:1],5^8[8:1],
{8}2-5[8:1],5-2[8:1],2V84[4:1]b,,,7x,6x-1[8:1],5,
{8}6/2-5[8:1],3,7-4[8:1]/2,8,7/3-8[8:1],2,3pp4[4:1]b/6x,5x,
{8}4x-1-3[4:1]b,,8b,{16}8x,7x,6x,,3/4,,2,5,1,6,
{16}8b>4[16:3],,,7h[8:1],,,6,,5<1[16:3],,,4h[8:1],,,3,,
{16}2>6[16:3],,,1h[8:1],,,8,,7-4[8:1]*-3[8:1],,,,7x,,,,
{8}2-7[8:1]/6,1,2/6-3[8:1],5,2x-5[8:1]/6x-1[8:1],,2x^7[8:1]/6x^3[8:1],,
{16},,,,2b/6b,,3/5,,1/7,,8,4,7,3,6,2,
{8}5b^8[8:1],1^4[8:1],5-1[8:1],1-6b[8:1],,,4x-8[8:1],3-1[8:1],
{8}4-6[8:1],3-7^1-5[8:3]b,,,5,6x,7x<4[8:1],8,
{8}1^4[8:1]/7,8,7-3[8:1]/1,6,1-5[8:1]/7,2,1/8^3[8:1]b,7,
{16}6/8x,,5,,4/7,,3,3,1,,2/8,,7,3,6,4,
{16}5bV71[16:3],,,4h[8:1],,,3,,2V46[16:3],,,1h[8:1],,,8,,
{16}7V13[16:3],,,6h[8:1],,,5,,4^7[8:1],,,,1,2,3,4,
{16}5h[8:1]b,,8x,4h[8:1]b,,7x,3b,,5h[8:1]b,,3x,6h[8:1]b,,4x,7b,,
{6}8xh[6:1],1xh[6:1],2xh[6:1],{4}3xh[4:1],Cf,
{24}1b,2/8,3/7,4/6,,,{16}6x,5,7,,6x,4,,4,6x,,4,5,
{16}3x,,2,4,3x,4,2,5,3xh[8:1],,5h[8:1],,7xh[8:1],,5h[8:1],,
{16}4x,,3,4,2x,,,7,5/7x,,,2,4/2x,,8,1,
{16}2x/7x,,6/4,6/4,,5/3,5/3,,6/4,6/4,,7/2,7^5[8:1]/2,,8/1,,
{16}7b/1b,2,3h[8:7],,,4,4,,5,5,,6,6x,,7,6,
{16}5h[4:1],,2,2,,1,8,1,7h[8:1],,2h[8:1],,5xh[8:1],,1h[8:1],,
{16}7b,5,6,4,5,3,4,2,8b,,2,3,4/6,6,5,5,
{24}8h[4:1],,,1x,2x,3x,4xh[4:1],,,8x,1x,2x,3xh[4:1],,,7x,8x,1x,2xh[4:1],,,,,,
{16}7b,5,6,5,7,,,,7,,5,5,7,5,5,,
{16}7,,6,5,7,,,,7,,5,5,7,5,5,,
{16}7,5,6,,7,,,,7,,5,5,7-3[8:1],5,5,,
{16}7b,,1,1,,2/8,2/8,,3/7,3/7,,,6bx,4bx,5bx,4bx,
{16}7x-4[8:1],5,6,5,7x,,3-8[8:1],1,2x,1,3,,7x-3[8:1],5,6,5,
{16}7x,,2-6[8:1],4,1x,4,2,,8x-4[8:1],3,7,2,8x,,2,6,
{16}3x^8[8:1],5,4,6,3x,,6,5,7xh[4:1],,,,4x,5,3,6,
{16}2b,8,4,6,1b,7,3,5,A2,A1,A8,A7,A6/2x,A5/1x,A4/8x,A3/7x,
{4}A2/6xh[1:3],E3,E4,A1,
{4}B1,C,B5,A8,
{4}E8,E7,E6,E5,
{4}Ch[2:1],8b,{12}7,7,1,5,3,3,
{6}4xh[12:1]/8xh[12:1],5xh[12:1]/7xh[12:1],6xh[12:1],5xh[12:1]/1xh[12:1],4xh[12:1]/2xh[12:1],3xh[12:1],
{16}8,2,6,4,7,1,5,3,8,5,7,4,6,3,5,2,
{6}4bxh[12:1],5bxh[12:1]/3bxh[12:1],6bxh[12:1]/2bxh[12:1],7bxh[12:1],8bxh[12:1]/6bxh[12:1],1bxh[12:1]/5bxh[12:1],
{1}B3hf[1:1],
{16}8b,,,,,,,,7x,3,6,4,5,,5,,
{16}E2/B1/B2,,,,,,,,2x/5x,,3,4,3,,3,,
{16}2b/1b,8,7,,2,,2,3,4x/6,,6,,4,,4,,
{16}5b/4b,,7,8,6,1,5,2,4h[8:1],,3h[8:1],,2h[8:1],,1h[8:1],,
{16}8b,,,,,,,,2x,6,3,5,4,,4,,
{16}E8/B8/B7,,,,,,,,7x/4x,,6,5,6,,6,,
{16}7b/8b,1,2,,7,,7,6,5x/3,,3,,5,,4,,
{16}2b,1,2,1,3,8,4,7,5h[8:1],,6h[8:1],,7h[8:1],,8h[8:1],,
{4}1bh[2:15],,8h[8:1],8h[8:1],
{4}7,7,6,5,
{4}4^7[8:1],,8h[8:1],8h[8:1],
{4}7,7,6,5,
{4}4-8[8:1],,7h[8:1],7h[8:1],
{4}6,6,5,4,
{4}3-6[8:1],,7-2[8:1],,
{1}Chf[2:1],
{16}3b,5,3,5,1b,7,1,7,2b,4,2,4,8b,6,8,6,
{16}1b,3,1,3,7b,5,7,5,8b,2,8,2,C,,,,
{8}3bh[4:3]/7bh[4:3],,,,,,,5bh[1:1]/1bh[8:5],
{8},,,,,2,3,4,
{8}Cf/7b,6x/8x,5x/1x,2x/4x,3b/B7f,8x/4x,7x/3x,6x/2x,
{24}1,2,3,7,6,5
,4x/3x,2,1,8,7,6,5h[8:1]/A3,D3,A2,D2,A1,D1,A8/3x,D8,A7,D7,A6,D6,
{16}A5f/1b-5[8:1],,2,6h[8:1],1x,,7,,8^5[8:1]/4h[8:1],,1,3h[8:1],8x,,2,,
{16}1-3-7-5[8:3]/4h[8:1],,8,5h[8:1],1x,,7,,8-4[8:1]b,,,,8x/4x,,3,,
{16}2/5-1[8:1],,6,,4-2[8:1]/5,,3,,4x-8[8:1]/5x-7[8:1],,,,4x/5xw1[8:1]b,,,,
{16}5x,,,,6b/3b,,4/5,,7b/8b,,2b,4b,1b-5[8:1]b,7b,3b,5b,
{16}1b^6[8:1],Cf,7h[8:1],,1xV38-4[8:3]b,,4h[8:1],,1,,8,,7x^2[8:1],,6,,
{8}7-3[8:1],5h[8:1],7-5-8-4[8:3]b,1h[8:1],7,8x,1x-6[8:1],2,
{8}1/5-2[8:1]b,4,1-5[8:1]/5,8-6[8:1],1-3[8:1],8-4[8:1],1x<3[8:3]b,8x,
{16}1b,,,,Cf,,,,1/2,,6/5,,8b,4b,7b,5b,
{16}6bV84[4:1],,,3h[8:1],,,2,,1V37[4:1],,,6h[8:1],,,5,,
{16}4V62[4:1],,,1h[8:1],,,8,,7h[8:1]b,,,,8x-3[8:1]/4x,1x/5x,2x/6x,3x/7x,
{16}8xb/4xb-8[16:1],,,7b-4[16:1]/4b,,,7b/1b,,2b-6[16:1]b,,,8b-4[16:1]b/2b,,,3b/8b,,
{6}2xh[6:1],1xh[6:1],8xh[6:1],{4}7xh[2:1],{32},,,,A1,B1,C,B5,
{12}A5f,,,,,,,,,5,3,7,
{12}A1/B1/E1/E2,,,,,,,,,,3,4,
{12}2bz6[8:3]/5b,,,,,,,,,1,7,3,
{2}A5/B5/E5/E6,{24}7x,8x,7x,8x,7x,8x,7x-3[8:1]b,8x,7x,8x,7x,8x,
{24}7b,Cf,,,,,{4},,{12}6,4,8,
{1}B2/E2/E3,
{2}A1f/2b^5[8:1],B1f/8b^5[8:1],
{2}1b-5[8:1]/Cf,{12}7b,4,6,3,5,2,
{2}4b-8[4:1],5b-1[4:1],
{2}6x-2[4:1],{8}7b-3[4:1],,,8x,
{2}8b-4[4:1],1b-5[4:1],
{2}B3f/E3/E4,{12}6b,5,7,3,4,2,
{2}8b-4[8:1]b,8b^3[8:1]*^5[8:1],
{2}A6/B6/B2/A2,{24}1b/7b,2/6,3/5,{16}4h[4:1],,,,7x,7x,
{12}2b,4,3,7,5,6,1b,3,2,8,6,7,
{12}1b,6,4,8,3,5,1b,7,5,8,2,4,
{1}C,
E
