&title=magnolia
&artist=M2U
&first=0
&des=ameki
&lv_5=14
&inote_5=(160)
{2},,
{16}45,,,,3,5,2,4,
{8}1>4[4:1],,4p8[4:1],,8>4[16:5],,,
{16}7,6,
{2}5h[4:1],
{16}54,,,,6,4,7,5,
{4}8<5[4:1],5-1[4:1],
{16}1<6[4:1],,,,,,4,3,
{8}2h[8:1],1h[8:1],8h[8:1],7h[8:1],5,,
{16}3,5,2,4,1-3[8:1],,,,1/4-8[8:1],,,,47,,,,
6,5,7,4,8-4[8:1],,,,8/2v5[8:1],,,,26,,,,
3,4,2,5,
{4}1h[4:1],6h[4:1],8h[32:16],,
{32},17,26,35,4h[32:8],,,,,,,,,,,,
{8}25,1,8,7>5[16:9]/5,,,3<8[16:9],,,
1,2,3,4w8[2:1],,,,,,,,
18,7,6,5,4/2,3-8[8:1],4,35,,1,28,,
78,1,2,3<1[16:9]/5,,,7>4[16:9],,,5,6,7,8,,,,
{12}1-5[1:1],,8,,2,,7,,3,,6,,4h[1:1],,,
{2},,,
{8}3h[4:1],,5^7[4:1],,2,,2^4[4:1],,6,,
{24}5,6,7h[24:4],,,,
{8}4^2[4:1],5,4/6,,7,,1/8V64[4:1],,4v7[4:1],,3,,2,,45,3,2>5[4:1],6,5>1[4:1],,8,,
{16}7h[16:3],,,8,7,,,,
{8}17,,26,,3>8[4:1]/5,,8q5[4:1],,7h[4:1],,,,
6h[4:1],4,3,,5h[4:1],3,2,,7h[4:1],5,4,3,2h[4:1],1,8-4[8:1],,
{8}1b>7[2:1]/8b,,,,7>2[4:1],,2>5[4:1],,5p1[4:1],,1p5[4:1],,7,,,,
1h[2:1]/6,,,7,7h[2:1],,2,,3h[2:1],,8-4[8:1],,8w4[8:1],,,,
{16}4>1[8:1]/6,,,5,4,,,,3/5<8[8:1],,,,4>1[8:1]/5,,,,
{8}4/7-3[8:1],,7/1-5[8:1],,1,,,,7pp8[4:1],,8<4[4:1],,4-8[4:1],,2-6[8:1],,{16}2pp3[16:3],,,,52,,,,{32}2,1,8,7,6,5,4,3,2b/6b,,,,,,,,
{8}
25,1-5[8:1],1,17,6<1[8:1],6,63,4,
57,8v5[8:1],8,83,4p8[8:1],4,48,7,
61,2-8[8:1],2,25,5-1[8:1],5,52,3,
48,7<4[8:1],7,71,8>3[8:1],8,87,6,
54,5-1[8:1]/4,54,53,3,3,52,3,
47,4-8[8:1]/7,47,46,6,6,45,3,
2h[8:3],1,8,7h[8:3],,,4h[8:2],,
6,7>5[16:6],3,2,,,,,
{32}
1h[4:1]/8,7,6,5,4,,,,,,,,7h[4:1]/8,1,2,3,4,,,,,,,,1,28,37,46,5w1[16:6],,,,
,,,,,,,,,,,,,,,,,,,,,,,,37,,,,,,,,
8h[4:1]/2,1,,7,6,,,,,,,,1h[4:1]/7,8,,2,3,,,,,,,,1qq6[8:6]/5-2[8:2],26,37,48,,,,,
{8},,,,2-4[8:1],,,,
6/5>3[8:1],7,8,1,5>3[8:1]/6,,7,,6/5>3[8:1],,8,7,
{16}6,4,6,4,6,4,6,4,
{8}6<8[8:1],4,3,2,4/6<8[8:1],,4,,5/6<8[8:1],,1,2,
{16}3,8,3,8,3,8,3,8,
{8}3,2,1h[8:1]/6,7,2/8h[8:1],3,4h[8:1]/6,7,1/8h[8:1],2,3h[8:1]/4,6,
{16}1,7,1,7,1h[32:1],7h[32:1],1h[32:1],7h[32:1],
{32}1,2,3h[16:3],,8,,,,8,,,,8b,7,6h[16:3],,1,,,,1,,,,1b,28,37,4qq1[8:3]/6q8[8:3],5,,,,
{4},,{8},2b/7b,,,
{16}2/5v8[8:1],,,1h[16:1],,,1,,
{16}1/7,,,2v4[8:1],,7,2,,5v7[8:1],,,3h[16:1],,,2,,7-3[16:2]/8-4[16:2],,16,,7b/8b,,,,
{16}25,,,6v8[8:1],,,2,,1,,,7,,3,35,,24,,1,,57,,
{32}8-4[8:1],7,6,5,1-5[8:1],2,3,4,8,,,,1,,
{16},,,
7/4v1[8:1],,,8h[16:1],,,8,,
{16}8/2,,,7v5[8:1],,2,7,,4v2[8:1],,,6h[16:1],,,7,,2-6[16:2]/1-5[16:2],,83,,2b/1b,,,,
7v4[8:1]/3,,,2h[16:1],,,2,,
{32}2,1,8,7,6,5,4/8h[16:3],,
{8},,84,37,26,1V38[16:3]/5V74[16:3],,1b/5b,,,
{16}7<3[4:1]/1,,,,2,,1,,8-3[8:1],,,7,8,,,,6p2[16:1]/4,,,8h[16:3]/6,,,,,8-5[8:1]*v3[8:1],,17,,8,,,,
2>6[4:1],,,,7,,8,,1-6[8:1],,,2,1,,,,34,,1,,56,,
{32}8-4[8:1],7,6,5,1-5[8:1],2,3,4,
{8}8,1,,
{16}6<2[4:1]/4,,,
,3,,4,,5-2[8:1],,,6,5,,,,7h[16:3]/1,,,8h[16:3],,,6,,3h[16:3]/4,,,1h[16:3],,,2,,
38,,7,,6,,51,,2,,3,,
{32}48,7,6,5,4V28[8:1]*v7[8:1],,,,,,,,4b,,,,
{4},
{32}84,7,6,5,4,3,2,1,8,7,6,5,4,3,2,1,
{4}3<1[16:8]/8,
{16},,,,1>4[4:1],,,,4<7[4:1],,,,7>2[4:1],,,,2q4[16:7],,,,
{4},,
{16}6<1[6:1],,,5,6,,,,2,,3,5,4,,7,5,6,,3,4,2,,6,5,7-4[12:1],,,17,17,,,,
2b-4[12:1]/5,,,,6v1[8:1],,,65,6/5>6[2:1],,,,,,,,
6>2[4:1],,,,2<6[4:1],,,,6p2[4:1],,,,,,,,
7h[4:1],,,,1,8,1,8,27,,,,35,,4,5,
{8}36,2,2,17,6,6,3/5,,
{16}
71,,7,,7,,7/1,,7-3[8:1]/2,,7/3-5[10:1],,7,,2,,
1,,1,,1,,1/7,,1-5[8:1]/6,,1/5-3[10:1],,1,,6,,
6,,6,,6,,6/3,,6-1[8:1]/2,,6/1V75[6:1],,6,,2,,
2,,2,,2,,2/7,,2-5[8:1]/6,,2/5V31[6:1],,2,,8,,
8,,8,,8,,8/3,,8/2-5[8:1],,8-6[8:1]/3,,2,,8,,
4,,4,,4,,4/6,,4/5-8[8:1],,4-1[8:1]/6,,5,,4,,
7,,7,,7,,7/1,,2/7-5[8:1],,3-8[8:1]/7,,7,,3,,
7,,6<3[16:6],,5,,4h[16:6],,,,,,,,,,
{32}1h[4:1]/2b,3,4,5,,,,,,,,,8h[4:1]/1b,2,3,4,,,,,,,,,7h[4:1]/8b,1,2,3>4[8:5],,,,,
{4},,{8}1,8,7,6h[8:1],
{32}8b,1,2,3>8[140#32:3],,,,,,,,,3/7b,6,5,4,,,,,,,,,
1b/5,26,37,48,1qq6[2:1]/5qq2[2:1],,,,
{4},,,,
{8}5<8[4:1],,,1>4[4:1],,,7qq1[2:1],,,,
,,,,
3,,2>5[4:1],,,6,,,4pp5[29#8:1]*qq3[29#8:1]/5h[1:1],,,,,,,,,,,,,,,,,,
E
