&title=天下トーイツ-A-to-Z☆
&artist=Pastel*Palettes
&first=0
&des=天下トーイツのペースト絵!!!!
&lv_5=13
&inote_5=(153){4},{8},,,,,,,,,,,,,,2/8pp5[8:3],
,,,,3,2,1,
{4}8/6>3-7>2[2:1],,,4-1>2qq2[2:1],
{8},,,,,5,4,3,
{4}2-8[8:1],4-2[8:1],7w3[8:1],{48}7,Cf,,,,,,,,,,,{4}5/1-3[8:1],
1/5-1[8:1],5/2-4[8:1],{8}2/7,6,
5-7[8:1],2b,5-8[8:1],4b,5-1[8:1],3b,5,2b,
{4}4/8-6[8:1],8/4-8[8:1],4/7-5[8:1],{8}7/2,3,
4-2[8:1],7b,4-1[8:1],5b,4-8[8:1],6b,4,7b,
1/6h[4:1],,,4/2,,3/5,{4}5,
{8}6/5,{16}6,5,{8}6,{16}4,5,{8}4,{16}6,5,{8}7p3[4:1],4,
7/1,8,{4}2>6[4:1],{8}1/2,7,{4}8-4v6-8b[2:1],
{8},4,{16},2,,,{4}1-5[8:1],1,
{2}7h[2:1]/3h[4:1],{4}1-7[8:1],5-1[8:1],
{2}3h[2:1],{4}1-7[8:1],5-1[8:1],
{2}6h[2:1],8-2-4<5[4:1],
{4}6bx-1[8:1],6/4bx-8[8:1],5/4-7[8:1],2bx/4bx,
{8}1h[8:1],3,1h[8:1],7,1h[8:1],3,8,7/4,
6h[8:1],5,6h[8:1],4,6h[8:1],5,4,3/6,
2h[8:1],3,7h[8:1],6,1h[8:1],2h,8h[8:1],7h,
{16}6/E1f,,,5/B1f,,,{8}4/B2f,{2}3x-7[8:1]/4-8[8:1],
1>5V31[8:3],{8}8,7,{4}6>3[8:1],
{2}1<6[8:1],{4}4-1[8:1]*-7[8:1],4,
{2}7<3V57[8:3],{8}1x,2,3,4,
5qq2[8:3],,,7,{4}8-4[8:1],{8}8,1,
2,3,2/7,3,2/6,3-6[8:1],5/2,3,
7,6,7/4,6,3/7,4,{4}7h[2:1]/2-6<3[4:3],
,,4,5,
6>2[4:1],2<6[4:1],{2}6>8[4:1],
{16}E4f/A3/A4,,,8,{8}1,2b/8,{16}E6f/A6/A5,,,1,{8}8,7b/1,
{32}2x,3x,4x,5x,6x,7x,8x,1x,2xV48[4:1],3x,4x,5x,6x,7x,8x,1x,{2}2b/E5f,
{8}7b/1b,{16}3x-8[8:1],4,,4,{8}3,5b,{16}6x-1[8:1],5,,5,{8}6,
4b,{16}3x,4,{8}2h[8:1],{16}8x,1,{8}7h[8:1],{16}5x,6,{8}4h[8:1],B5/E5/B4,
3bx/8bx,{16}2x-5[8:1],1,,1,{8}2,8b,{16}7x-4[8:1],8,,8,{8}7,
1b,{16}2x,1,{8}3h[8:1],{16}5x,4,{8}6h[8:1],{16}8x,7,{8}1h[8:1],4,
5-7[8:1],6,5-3[8:1],4,5-8[8:1],6,5,2,
1-7[8:1],8,1-3[8:1],2,1<4[4:1],8x,1,2,
,3/2b-6[8:1],1b/4,8x,,7bV53[8:1],8b/1,2x,
{16}1<6[16:3],,,6b>3[16:3],,,{8}1,{16}A8,A7,A6,A5,A4,A3,A2,A1,
{8}4b/A8f,{16}6x-1[8:1],5,,5,{8}6x,4b,{16}3x-8[8:1],4,,4,{8}3x,
5b,{16}6x,5,{8}7h[8:1],{16}1x,8,{8}2h[8:1],{16}4x,3,{8}5h[8:1],B4/E4/B3,
6b/1bx,{16}7x-4[8:1],8,,8,{8}7x,1b,{16}2x-5[8:1],1,,1,{8}2x,
8b,{16}7x,8,{8}6h[8:1],{16}4x,5,{8}3h[8:1],{16}1x,2,{8}8h[8:1],5,
4>2[8:1],3,4<6[8:1],5,4-1[8:1],3,4,7,
{16}8h[16:3],,,2>5-1[16:5],,,8,7,{4}6-2b[16:1],{48}6b,Cf,,,,,,,,,,,,,,,,,{8}8b/3-6[8:1],
,3b/7,{6}7b-4[8:1],{24}4b,3,2,1,,{8}8x,
{1}2b-4-6-8-2>3[2:3]/6b<7-1-3-5-7[2:3],
{8},,,,,,,,4/8,
{16}6,5,{8}7,{16}3,4,{8}2,{16}6,5,{8}8,{16}3,4,
{8}1-4[8:1],8b,1-5[8:1],8b,1-3[8:1],8b,1,8b,
2/6h[4:1],,,4/2,,3/5,{4}5,
{8}6/5,{16}6,5,{8}6,{16}4,5,{8}4,{16}6,5,{8}7p3[4:1],4,
7/1,8,{4}2>6[4:1],{8}1/2,7,{4}8-2-6-4b[2:1],
{8},4,{16},2,,,{4}1-5[8:1],1>1-3-5-7-1b[1:2],
{1}Cf,
E
