&title=飞八分钱(PHONK)
&artist=Xz乔希 feat. Suno V5
&first=0
&des=心顺白
&des_5=心顺白
&lv_5=13
&inote_5=(132){4},,,,{1}1V75[2:1]/2-6[8:3],
5>4s8[2:1]*z1<8[2:1],
6-2[2:1]/5V71[2:1],
2qq1-4>3[2:1]*qq1-4>3[2:1],
{8}2/C,2,{4}2,{8}6/C,6,{4}6,
{8}4/C,4,{4}4,{8}8/C,8,{4}8,
{8}7,7,5,5,4,4,2,2,
{2}1h[4:1]/8h[4:1],{4}1h[8:1]/8h[8:1],8h[8:1]/1h[8:1],
{8}8h[16:1]/1h[16:1],1h[16:1]/8h[16:1],{16}1h[16:1],8h[16:1],1h[16:1],8h[16:1],1h[16:1],8h[16:1],1h[16:1],8h[16:1],1h[16:1],8h[16:1],1h[16:1],8h,
{8}1xw5[3.1818##0.2273]/8xw4[3.1818##0.2273],,,5,6,7,8,1,
2/3,2/3,4/5,4/5,6/7,7/6,{4}1b/8b,
{8}2v5[8:1],5V31[8:1],{4}2,{8}7-3[8:1],7,{4}7/8,
{16}1h[8:1],,,3,{8}1h[8:1],4,{16}1h[8:1],5,,,6,1,6,1,
{8}7v4[8:1],4V68[8:1],{4}7,{8}2-6[8:1],2,{4}2/1,
{16}8h[8:1],,,6,{8}8h[8:1],5,{16}8h[8:1],4,,,3,8,3,8,
{8}2-5[8:1],5p8[8:1],{4}2,{8}7p3[8:1],7,{4}7/8,
{16}1-7[8:1],,,3,{8}1-3[8:1],4,{16}1,5,,,6,4,6,4,
{8}7-4[8:1],4q1[8:1],{4}7,{8}2q6[8:1],2,{4}2/1-5[4:3],
{16}8,,,2,,,{8}7,{16},3,,,{8}6,4,
5-7[8:1],{16}4,4,{4}5,{8}4-2[8:1],{16}5,5,{4}4,
1<7[8:1]*>3[8:1],1s5b[4:1],{2}1,
{8}2,2,4,4,5,5,7,7,
{2}1h[8:3]/8h[16:3],{4}1h[16:1]/8h[16:1],1h[8:1]/8h[8:1],
{8}1w5[3.1818##0.2273]/8w4[3.1818##0.2273],,,4,3,2,1,8,
7/6,7/6,5/4,5/4,3/2,2/3,{4}1b/8b,
{8}3,5-7[8:1],6,4-8[8:1],3,5-1[8:1],6,4-2[8:1],
3,5-7[8:1],6,4-8[8:1],3,5-1[8:1],6,4,
3,2/8,6,7/1,3,2/8,6,7/1,
4,2/8,5,7/1,4,2/8,{16}1,1,1,1,
{8}1,8<5[8:1],6,1-5[8:1],3,8-4[8:1],6,1>4[8:1],
3,8<5[8:1],6,1-5[8:1],3,8-4[8:1],6,1,
3,8/2h[8:1],6,1/7h[8:1],3,8/2h[8:1],6,1/7h[8:1],
{16}B1,,,B7,,,{8}B2,{16},B6,,,{8}B3,B5,
4qq8[8:5],,,5,{2}5-7[8:1],
{4}6/1,7/2,3-1[8:1]/8-6[8:1],8/3,
{8}5pp1[8:5],,,4,{2}4-2[8:1],
{4}3/8,2/7,{8}6/1,2,{16}7,2,7,2,
{8}6qq8[8:5],,,1,{2}1-4[8:1],
{4}7-5[8:1],7/8-4[8:1],8/1-3[8:1],1,
{8}3pp1[8:5],,,8,{2}8-5[8:1],
{1}Ch[1:1],
{8}E2,B2,{4}B3,{8}E8,B8,{4}B1,
{8}E6,B6,{4}B7,{8}E4,B4,{4}B5,
{8}E2,E3,E4,E5,E6,E7,E8,E1,
{2}1h[4:1]/8h[4:1],{4}1h[8:1]/8h[8:1],8h[8:1]/1h[8:1],
{8}8h[16:1]/1h[16:1],1h[16:1]/8h[16:1],{16}8h[16:1],1h[16:1],8h[16:1],1h[16:1],8h[16:1],1h[16:1],8h[16:1],1h[16:1],8h[16:1],1h[16:1],8h[16:1],1h,
{8}1xw5[3.1818##0.2273]/8xw4[3.1818##0.2273],,,7,2,6,3,5,
4/5,4/5,3/6,3/6,2/7,7/2,{4}1b/8b,
{8}3-8[8:1],3,7-4[8:1],7,1-6[8:1],1,5,5,
{16}2,4,3,4,2,5,4,5,1-5b[8:1],4,3,4,{4}1,
{8}6-1[8:1],6,2-5[8:1],2,8-3[8:1],8,4,4,
{16}7,5,6,5,7,4,5,4,8,5,6,5,8,4,5,4,
{8}7-4[8:1],7,3-8[8:1],3,5-2[8:1],5,1,1,
{16}1,8,8,8,2,8,8,8,1-5b[8:1],8,8,8,{4}1,
7-4b[8:1],8-5b[8:1],1-6b[8:1],8-4[4:3],
{16}1,,,7,,,{8}2,{16},6,,,{8}3,5,
4,2,5,7,{16}6/3,6/3,,,{8}4/5,{16}4,5,
4>1[16:3],,,1<6[16:3],,,{8}6z2>5[8:3],{16},5,,,{4}5,
{8}8,6,1,3,{16}2/7,2/7,,,{8}8/1,6/3,
{16}5<8[16:3],,,8>3[16:3],,,{8}3s7<4[8:3],{16},4,,,{4}4,
1-7[8:1],1-3[8:1]/5-7[8:1],1-5[8:1],1,
4>1[8:1]/8<5[8:1],4-7[8:1]/8-3[8:1],4-8[8:1]/8-4[8:1],4/8,
1-5[8:1],5V72-8[8:3]/1V36-4[8:3],{16},,,,,,,,3,
,,7,,,{8}2,{16},6,,,{8}1w5[8:1],5,
E
