&title=Fracture Ray
&artist=Sakuzyo
&des=えども~ん
&first=0
&lv_5=13
&inote_5=
(100)
{1},,
{4},,{16},,,{32},3v8[8:1]/5>6[8:15],{16},,,,
{16},,,,,7v2[4:1],,
,,,,,,,,,{1}4v1[8:7],{8}5<4[8:13],,,,3v6[6:1],,,,{1}5-8[8:7],
{4}5v2[8:1],8>6[4:3],{8}3,,8,1,2,3,4q1[8:1],,8,,17,26,
{2}3/5>6[8:13],7v4[6:1],3v8[6:1],1v4[6:1],
{2}5v7[6:1]/7h[4:1],1v6[6:1]/6h[4:1],3v5[6:1]/5h[4:1],7v4[6:1]/4h[4:1],
{2}1v3[6:1]/3h[4:1],5v2[6:1]/2h[4:1],8v1[6:1]/1h[4:1],
{4}1s5[16:1]*v4[16:1],1b,
{32}1-5[16:1],2,3,4,1,8,7,6,{4}1-6[16:1],
{16}1-4[16:1]/3,3,2,2,1^6[16:1]/7,,{32}8,3,8,3,
{16}1-5[16:1],2,2,2,1-6[16:1]/7,8,8,8,1^4[16:1]/3,2,2,2,8^5[16:1]/1,,6,,
{32}8-4[16:1]/3,2,1,8,7,6,5,4,{4}8-3[16:1]/3,
{16}8-5[16:1]/6,6,7,7,{16}2/8-3[16:1],,1,6,8-5[16:1],7,7,7,
{16}8^3[16:1],1,1,1,86,6,6,6,{32}4,5,4,5,3,6,3,,{32}5-1[16:1],6,7,8,5,4,3,2,
{16}5-2[16:1],,3,7,5<4[16:3],6,6,6,{32}5/1-5[16:1],2,3,4,5,,,,{4}1b,
{16}4-1[16:1]/5,3,3,3,4V26[8:1]/5,6,6V83[8:1],6,,,,,
{32}5w1[16:1],6,7,8,1,2,3,4,{4}5,{32}4w8[16:1],3,2,1,8,7,6,5,{4}4,
{16}1-6[16:1],6,7,8,1-4[16:1]/5,4,3,2,15,6,7,8,1w5[16:1],,1,1,
{16}1b,,,34,2,56,8,4,,1-5[18:1]/3,8,7,61,,8,8,{32}3,4-8[18:1],2,,6,5,7,,{16}4,7,6,,2h[8:1],{64},8,7,6,
{16}5^2[16:1],5,{32}4-8[12:1],,,6,5b,,,,{16}4,,,1,28,7<3[8:1],3,,4,{32}47,3,2,1,8,,8-4[16:1],,4,5,6,,2,,
{8}8,{32},,18,72,36,,,54,,54,,,6h[8:1],,{64}1,2,3,{16}4,{12}4,35,62,{64},{32}2,2,{32}8,7,6,5,8,1,2,3,{16}48,37,
{32}6,4,6,4,{20}5p1[40:6],5q1[8:1],5,5,5,{4}5<3[6:1],5h[8:1],
{20}7,4,6,3,5,{32}4,6,3,7,2,8,1,8,{8}2-5[8:1]/7-4[8:1],4^2[16:1]/5^8[12:1],27,,
{8}1,{16}82,3,4-8[16:1]/5,6,2,5,41,,2,2,{32}36,4,5,6,7,8,1,2,73,6,5,4,3,2,1,8,{16}3v1[6:1]/7v5[6:1],26,37,84,,,,,
{8}2>8[2:1],4,5<3[2:1],6h[2:1],,,,,7<1[2:1],5,4>6[2:1],3h[2:1],,,,,2<4[8:6],1<3[8:6],8<2[8:6],7<1[8:6],6>8[8:6],5>7[8:6],,,
{8}5,5,6,6,6,5,4,3,2b/7b,,,,,3h[8:1],4h[8:1],3h[8:1],1h[4:1],,5h[4:1],,7h[4:1],,8-5[16:1]*-4[16:1],,
{8}8b,,,,,6h[8:1],5h[4:1],,2h[4:1],,4h[4:1],,8h[4:1],,1-5[16:1]*-6[16:1],,
{8}1b,,,,,1h[8:1],8h[8:1],2h[8:1],6h[4:1],,4h[4:1],,3h[4:1],,2>1[2:1],,
{4},,6h[4:1],5h[4:1],{8}4,,3,,2,7,1w5[16:1],8,
{16}1b,,,,8w4[16:1]/3,6,2,7,
{16}8b,,,,1w5[16:1]/6,7,{32}1,1,1,1,
{16}1b,,,,8w4[16:1]/3,2,7,1,
{8}8b,,7h[16:1]/1w5[16:1],1,
{8}1b,,{16}8w4[16:1]/3,4,6,1,
{8}8b,,{32}1w5[16:1],2,3,4,1,8,7,6,
{8}1b,,{16}8w4[16:1]/1,7,2,6,
{8}8b,,{16}1>8[32:7]/5,,{32}2h[128:1]/6h[128:1],3h[128:1]/7h[128:1],{16}4h[128:1]/8h[128:1],
{4}1w5[16:1],{16}1b,,3,7,1w5[16:1]/6,4,7,2,
{4}1b<2[32:7],1w5[16:1],1b>8[32:7],1w5[16:1],1b,
{32}8w4[16:1],7,6,5,4,3,2,1,{4}8b,
{32}8w4[16:1],1,2,3,4,5,6,7,{4}8b,
{32}36,5,4,3,2,1,8,7,26,3,4,5,6,7,8,1,{16}2v4[6:1]/6v8[6:1],73,26,15,,,,,
{8}1,,3,4,5,6,5,4,35,,46,,7,8,1/8w4[16:1],27,
{16}8b,,,65,7,43,1,5,,8-4[18:1]/6,1,2,38,,1,1,{32}6,5-1[18:1],7,,3,4,2,,{16}5,2,3,,7h[8:1],{64},1,2,3,
{16}4^7[16:1],4,{32}5w1[12:1],,,3,4b,,,,{16}5,,,8,71,2>6[8:1],6,,5,{32}52,6,7,8,1,,1w5[16:1],,5,4,3,,7,,
{8}1,{32},,18,72,36,,,54,,54,,,3h[8:1],,{64}8,7,6,{16}5,{32}3,4,{16}2-5[16:1],{64},{32},2,1,3,8,
{8}2,{32},{64}7,6,5,4,3,2,1,8,{16}7b/3,3,{32}7,6,5,4,{20}1p5[40:6],1q5[8:1],1,1,1,{4}1<5[12:1]*>5[12:1],1,
{16}3,5,4,6,{32}5,7,4,8,3,7,2,6,
{8}1v4[8:1]/5v8[8:1],8^6[16:1]/4^1[12:1],,,5,{16}46,7,8-4[16:1]/1,2,7,3,84,,3,,
{32}26,5,4,3,2,1,8,7,61,2,3,4,5,6,7,8,{16}1p3[6:1]/5p7[6:1],26,37,48,,,,,
{16},5,4,3,,6,5,4,,3,4,5,,4w8[2:1],5,6,{1},,
