&title=친근한 어버이(亲切的父亲)
&artist=朝鲜功勋国家合唱团
&first=-1.09
&des=心白-HW
&des_5=心白-HW
&lv_5=14
&inote_5=(132){4},,,{8},{24}1,2,3,
{1}4h[1:1],
{16}5h[8:7],{8},{16}4,{8},{16}4,4,{8},4,3,2,
{16}1h[4:3],{8},{16}6,{8},7h[2:3],{2},{16}1,
{8},{16}2,{8},{16}3,3,{8},4,{4}4h[8:5],
{16}7,{8},{16}6,{8},5,{16}E6/E4,{8},{16}E7/E3,{8},E8/E2,
{4}1>4[8:1]/8<5[8:1],1v4[8:1]/8v5[8:1],1/8,{8}4/5,3,
{4}2-5[8:1],2/7<4[8:1],7/2V46[4:1],{8}8-5[2:1],8-3[8:3],
{4},,,{8}5/4,6,
{4}7-4[8:1],7/2>5[8:1],2/7V53[4:1],{8}1-4[2:1],1-6[8:3],
{4},,,{8}4/5,3,
{4}2q6[8:1],2/7v4[8:1],7/2>6[4:1],{8}8-5[2:1],8-3[8:3],
{4},,,6pp8[8:1]/5q1[8:1],
6/5,3qq1[8:1]/4p8[8:1],3/4,{8}7/2,6/3,
5/4,{16}6,5,{8}7,{16}3,4,{8}2h[8:3],6h[4:1],{16},,{32},7/3,8/4,5/1,
{4}2x/6x>2[4:1],{8}2<8[8:1],8<4[4:1],,4-2[8:1],2-8[8:1],8-4[8:1],
7,7,6,{16}6x,6x/3x,{8},E5,{48}E4/E6,B6,B3,B7,B2,E8,{8}E2,
{4}2-5[8:1],{8}2/7-4[8:1],8,7/3-8[8:1],2,3/6-1[8:1],5,
6/5,3,1/8,6,{4}5-8[8:1]/4v1[8:1],5/4,
7-4[8:1],{8}7/2-5[8:1],1,2/6-1[8:1],7,6/3-8[8:1],4,
3/4,6,8/1,3,{4}5h[4:1]/4-1[8:1]*-1[8:1],4,
7-3[8:1],{8}7/2-6[8:1],1,2/7,8,1/2,4/5,
8/7,6/1,5/2,3V15[4:1]/4-8-6[4:1],{2}4/3,
{8}6-8[12:1],2-4[12:1],6,2,7-5[12:1],3-1[12:1],7w3[2:1],3,
{4},,,{8}8-6[8:1]*v5[8:1],7/1,
{4}8-2[8:1]*v3[8:1],8<4[8:1]*>4[8:1],8-4b[4:3],{8}3,3h[8:5],
{4},,,{8}1-3<4[8:1]*q5[8:1],2/8,
{4}1-7<6[8:1]*p5[8:1],1>5[8:1]*V35[8:1],1<5[8:1]*V75[8:1],1w5b[2:1],
,,,{8}7-5[8:1]/1-6[8:1],1/7,
{4}1-3[8:1]/7-2[8:1],7/1,8pp5b[4:3],{8}4,4h[8:5],
{4},,,2-5[8:1]/8-4[8:1],
8/2,7-4[8:1]/1-5[8:1],7/1qq4b[4:3],{8}5,5,
{16}E6f,{8},{16}E7f,{8},E8f,{2}E1f,
{8}8/4,8,7/3,3,2/6,6,{4}5/1-7[8:1],
{8}1-3[8:1],6,1-5[8:1],4,{4}1,7<4[8:1]/8>3[8:1],
A7/A8/D8f,2>5[8:1]/1<6[8:1],A2/A1/D2f,8<5[8:1]/1>4[8:1],
A8/A1/D1f,5/4,{8}6/3,7,3/6,2,
{16}1,8,1,8h[8:1],,1,,2/7,3/6,{8},{16}5xh[16:1]/4xh[16:1],{4},2h[4:1],
{8}7v4[8:1],4V61[16:3],7,3,2,3,
4/5,6/7,8/1,2/3,{4}4-8[8:1]/5z1[8:1],4/5,
7h[4:1],{8}2v5[8:1],5V38[16:3],2,6,7,6,
5/4,3/2,1/8,7/6,{4}5-1[8:1]/4s8[8:1],5/4,
{8}1-5[8:1],5,1,7,8-4[8:1],4,8,2,
8/1,5/6,8-3[8:1]/1-6[8:1],3/4,{4}8-4[8:1]/1-5[8:1],1/8,
{8}7h[8:1],{32}8,1,2,3,{4}4b/8b,{8}2h[8:1],{32}1,8,7,6,{4}5b/1b,
6/2h[4:1],{16}7-4[8:1],{8},{16}7,{8}1q5[8:1],1,8-6[8:1],8,
{4}1/8-4[8:1],{8}2/8-6b[8:1],2,{16}2x/8x-4b[8:1],{8},{16}3x,{8}8x-6[8:1],3x,
{4}3/8-4[8:1],{8}5/8-6[8:1],5,{4}5/8-4[8:1],{8}3/8-6[8:1],3,
{16}3/8-4[8:1],{8},{16}1,{8}8-6[8:1],1,{4}2/8-4[8:1],3/8,
2b/8b,{8}7b/3b,{16}7b/3b,6b/2b,{4}5b/1b,{8}8/1-3[8:1],8,
{4}8/1-5[8:1],{8}7/1-3b[8:1],7,{16}7x/1x-5b[8:1],{8},{16}6x,{8}1x-3[8:1],6x,
{4}6/1-5[8:1],{8}4/1-3[8:1],4,{4}4/1-5[8:1],{8}6/1-3[8:1],6,
{16}6/1-5[8:1],{8},{16}8,{8}1-3[8:1],8,{4}7/1-5[8:1],6/1,
{16}7b/1b,{8},{16}5b/3b,{8},1b/3b,5b/7b,{128}E8/E5,{64},,,{128}E4,E7,{64},,,{128}E3,{4}E6,
{8}8/1v6[8:1],2,{4}1>4[8:1],{8}1/8v3[8:1],7,{4}8<5[8:1],
{8}8>3[8:1],1,8-4[8:1],7,{4}8,{8}2-5[8:1]/1-5[8:1],{16}3,3,
{4}1/2,{8}7-4[8:1]/8-4[8:1],{16}6,6,{4}8/7,{16}3,7,2,6,
3x,5,1,7,2,6,1,7,4,6,2,8,3,7,2,8,
1<8-4[8:1],{8},{16}1,{8}7-5>4[8:1],7,{4}7-2[8:1],{8}7/3-8[8:1],4,
3-6[8:1],5,3-7[8:1],4,{2}A3,
{16}8>1-5[8:1],{8},{16}8,{8}2-4<5[8:1],2,{4}2-7[8:1],{8}2/6-1[8:1],5,
6-3[8:1],4,6-2[8:1],5,A6,{16}5x,6x,7x,8x,1x,2x,
{4}3-8[8:1],3/4-7[8:1],4/3-8[8:1],3/4-6[8:1],
4/3-1[8:1],3/4-8[8:1],4/3-7[8:1],3/6-1[8:1],
{8}6/5-2[8:1],4,5/6-1[8:1],7,6/5-2[8:1],4,5/6,7,
{4}7h[8:1]/3h[8:1],{16}3/7,2/6,1/5,8/4,{32}7h[8:1]/3h[8:1],{8},{32}8/4,1/5,2/6,{8}3bx-8[8:1]/7bx-4[8:1],1b/5b,
{4}7b-2[8:1]/3b-6[8:1],7b/3b,1b/5b,{8}7-2b[8:1]/3-6b[8:1],6>4V28b[8:3]/2<8V64b[8:3],
{4}3x/7x,{2},{8}6-1[8:1]/2-5[8:1],8/4,
{4}2-7[8:1]/6-3[8:1],2/6,8/4,{8}2p4[2:1]/6q4[2:1],7/1,
{4}2/6,{2},{8}7-5[8:1]/8-4[8:1],6/1,
{4}8-2[8:1]/7-3[8:1],7-5b[8:1]/8-4b[8:1],8-2b[8:1]/7-3b[8:1],8/7,
2b/B6/E6f/B5/A6,{8}7b/E3/B3f/A3/D3,4b/E1/B8f/E8/D8,,7/3,8-5[8:1]/4-1[8:1],6/2,
{4}8<6[8:1]/4>2[8:1],8p4[8:1]/4p8[8:1],8/4,{8}4<8[4:3]/8>4[4:3],4/8,
{1},{8}8b,
{16}1x/2x,3,4/5,6,{8}7h[8:1],8x,{16}8x/7x,6,5/4,3,2,1,
7xh[8:3]/8xh[8:3],{4},{8},{16}6x/1x,{2}5xh[4:1]/2xh[4:1],
{8}3h[8:7],4,,5,,6,,7,
8h[8:7],1,,7,,3,,5,
4h[8:7],E1,,E8,,E7,,E6,
5h[8:7],B3,,B2,,B1,,B8,
8x,8-3[8:1],,5-1[8:1],,4-8[8:1],,2-7[8:1],
,4-1[8:1],,6-2[8:1],,8-4[8:1],{4},{8}6x,
6-3[8:1],,4-7[8:1],,8-3[8:1],,4-1[8:1],
,7-3[8:1],,5-1[8:1],{4},{8}6,6,
6/5,4,6/5,7,6/4,3,6/4,7,
7/2,{16}1,8,{8}1,2/7,6/3,{16}4,5,{8}4,3/6,
3/4,5,3/4,2,3/5,6,3/5,2,
2/7,{16}8,1,{8}8,7/2,3/6,5/4,6/3,7/2,
1/6,2,8/3,7,1/6,2,8/3,7,
6/1,{16}6/1,7/2,{8}3/8,8/3,8/3,{16}8/3,7/2,{8}6/1,7/2,
8/3,7,1/6,2,8/3,7,1/6,2,
8bx/3bx,7bx/2bx,6bx/1bx,{16}8bx/7bx,8b/7b,,2b/1b,,2bx/8bx,2bx/7b,2bx/6b,{8}2bx/5b,
1-4[8:1],5,5,5,5-8[8:1],1b,1b-3[8:1],1-7[8:1],
1x-4[8:1],1x-6[8:1],1x-5[8:1],1x,{4}1x,{8}7-4[8:1]/8-3[8:1],{16}1/6,6/1,
{4}7/8,{8}2-5[8:1]/1-6[8:1],{16}8/3,3/8,{4}1/2,{8}8qq5[8:3]/1pp4[8:3],{16}8/1,8/1,
{2}8/1,{32}6x/3x,7,8,1,2,3,4,5,6,7,8,1,2,3,4,5,
{8}6bx-1[8:1]/2bx-5[8:1],8bx/4bx,{4}2bx-7b[8:1]/6bx-3b[8:1],6b-1b[8:1]/2b-5b[8:1],6b/2b,
{32}1b/3h[32:3],8,7,6,{16},{32}8b/2h[32:3],7,6,5,{16},{32}7b/1h[32:3],6,5,4,{4},5-7[8:1]*-2[8:1],
5-3[8:1]*-8[8:1],5-1b[8:1],5<8b[8:1]*>2b[8:1],5,
{8}1-4[8:1]*>4[8:1],1-6[8:1]*<6[8:1],1x,1x,{16},C,{8},{32}1x,2,3,4,1x/5,8,7,6,
1x/5,2,3,4,5,6,7,8,1/5x,4,3,2,1,8,7,6,1bx/5,2,3,4,5,6,7,8,1/5bx,4,3,2,1bx,8,7,6,
1bx/5,2,3,4,5,6,3bx/7,8,1,2,3,4,{8}1bx/5,{4},7b-4[8:1]*-2[8:1],
7bx,3b-8[8:1]*-6[8:1],3bx,7bx/2bx,
{16}1b/8b,1b/8b,,4b/5b,,3b/7b,{8}1b/5b,2b/6b,4b/8b,{128}E8/E4,{64},,,{128}E3,E7,{64},,,{128}E2,{8}E6,
7<4[8:1],6,7/1-5[8:1],2,1/8-4[8:1],7,{4}8/2-6[8:1],
{8}2<7[8:1],8,2>5[8:1],4,{4}2,7w3[8:1],
A7f,2w6[8:1],A2f,8z4[4:1]/1s5[4:1],
{8}A8/A1/D1f,{4},{16}5/4,5/4,{2}5h[4:1]/4h[8:3],
{32}6bx/4h[8:1],7x,{16}8x,{8},{32}6bx/4h[8:1],7x,{16}8x,{8},{32}4/6bx,7x,{16}8xh[16:5],{8}3,2,1,
{32}1b/8b,7/2,{16}6/3,,{32}6b/3b,7/2,{8}1/8,{32}8b/1b,7/2,6/3,5/4,{4},{24}6<8[8:1],5,6,5,6,5,
{4}6b,{24}3>1[8:1],4,3,4,3,4,{4}3b,{24}5,4,5,4,5,4,
3x,2,1,6x,7,8,4x,3,2,1x,8,1,8,1b,{6},{4}4h[8:1]/5h[8:1],
{32}3bx/5h[8:1],2x,{16}1x,{8},{32}3bx/5h[8:1],2x,{16}1x,{8},{32}5/3bx,2x,{16}1xh[16:5],{8}6,7,8,
{32}8b/1b,7/2,6/3,5/4,{16},{32}8b/1b,7/2,6/3,5/4,{16},{32}1b/8b,7/2,6/3,5/4,{4},2bv5-1>2b[8:3]/7bv4-8<7b[8:3],
{2}7b/2b,{4}6h[8:1]/3h[8:1],5h[8:1]/4h[8:1],
{16}6b/3b,6b/3b,,5b/4b,,8b/1b,{8}1b-4[8:1]/8b-5[8:1],7b/2b,8b/1b,{4},{8}7h[8:1],
{32}8,1,2,3,{8}4/5,6,2h[8:1],{32}1,8,7,6,{8}5/4,3,
{32}2,3,{16}4,{32}7,6,{16}5,{32}1,2,3,4,8,7,6,5,1b,2b,3b,4b,{8},{24}6b,4,5,4,5,4,
6b,4,5,4,5,4,5,4,5,3b,5,4,6b,4,5,4,5,4,6b,4,5,3b,5,4,
{4}5V73-1b[8:3],{2},{8}8/2-4[8:1],2,
1/2-6[8:1],8,{4}7h[8:3]/2-4[8:1],2-6[8:1],{8}2/8-4[8:1],8,
1/8-6[8:1],3,{4}5h[8:3]/8-4[8:1],8-6[8:1],8/2-4[8:1],
1/2-6[8:1],{8}2-4[8:1]/5-1[8:1],7,{4}2/5,4v1b[4:7]/8-5b[4:7],
{1}8b/4b,
,{16}4,
4,3,3,8,7,1,2,{24}6,5,4,7,6,5,{32}4bxh[32:7]/D8,D7,D6,D5,D4,D3,D2,D1,
{8}7bx/3bx,{4},{24}8b/1b,1b/8b,7b/2b,{2}6b/3b,
