&title=Designant.
&artist=Designant
&first=0.05
&des=Aur0rA
&des_5=Aur0rA
&lv_5=14+
&inote_5=(200){4},,,,5bxh[8:1]/3bx>6<3[2:3],
5h[4:1],{8},5h[4:1],,,{4}5h[8:1],
5h[4:1],{8},5,,,{4}1bxh[8:1]/7bx<2>7b[2:3],
1xh[4:1],{8},1xh[4:1],,,{4}1xh[8:1],
1xh[4:1],{8},1x,,,{4}5h[8:1]/3b>2<1<8<7<6<7>8>1>2>3[16:25],
5h[4:1],{8},5h[4:1],,,{4}5h[8:1],
5h[4:1],{8},5,{4}5x<8[8:1],
5>2[8:1],5,{8},1/7,{16},,,,1,
1,1,1,{4}2/8,{8},B1/B2,{4}B6/B5,
3,3,3,3,
{8}2/E1,E8,2/E7,E6,{4}2,{8}1,1,
{4}1/5,5,5,5,
6,{8}6,{16}A1,D2,{8}6/A2,E3,6/E4,E5,
{4}7/C,7,7,7,
7/3,3,{8}3/E8,E7,3/E6,E5,
{4}3/C,8bh[8:3],{16},,,,,,2x/6x,3/5,
{1}4bz8[4:1]*-8b[4:1],
{4}4/8<4[4:1],{8}3,2,{4}1v6[8:1],1/7,
5/4,{16}1,1,{8}1,{16}8,8,{8}8,1x-5[8:1]/7x-3[8:1],8,
{4}1/7,{8}B1/B2,B6/B5,{16}E4,B4,{8}B5,C,E1,
{4}2x/7x,{16}4,4,{8}4,{16}5,5,{8}5,6/4,3/5,
{16}3,4,2,5,1,6,8,7,{8}1-6[8:1]*-4[8:1],2/8,{4}1,
{16}7x,8,6,1,5,2,4,3,{8}5-2[8:1]*-8[8:1],6/4,{4}5,
{16}1x,8,2,7,3,6,4,5,{32}4b,3,2,1,8,7,6,5,4,3,2,1,8,7,6,5,
{1}4/Ch[4:3],
{32}1b,2/8,3/7,4/6,{8}5h[4:1],,2bv5[8:1],,2b/6bv1[8:1],,6b/3bq8[16:3],
,3b,,,{2}Ch[4:1],
{32}8b-4[8:1],7,6,5,{8}4,{4}8b,{8},6bv1[8:1],,6b/2bv5>8[2:1],
,2b,E8,E7,{2}Ch[4:1],
{8}2b/8b,8b/2b-5[8:1],,2b/6b-1[8:1],,6b/3b-8[8:1],,3b/7bv4V61[2:1],
,7b,,,{2}Ch[4:1],
{8}8/E5,8,7/E4,7,6/E3,6,5/E2,5,
4x/B8,3x/B7,2x/B6,1x/B5,{32}A1,A2,A3,A4,A5,A6,A7,A8,{4}C,
{32}8b,7/1,6/2,5/3,{8}4h[4:1],,8b-6[8:1]*<7-5[8:1],,8b-2[8:1]*>1-3[8:1],,8b-4[8:1],
,8b,,,{2}Ch[4:1],
{32}1b-5[8:1],2,3,4,{8}5,{4}1b,{8},4b-1[16:3]*-2v1[16:3],,4b-7[16:3]*-6v7[16:3],
,4b,,,{2}Ch[4:1],
{8}8b/4bx,4bx/8bx<5[8:1]*>3[8:1],,8bx-4[8:1],,8b<7v5[8:1]*-5[8:1],,8b-3[8:1]*>1v3[8:1],
,8b,,,{2}B7/B6/B3/B4/Ch[2:1],
{8},,4/B8,3/B7,2/B6,1/B5,{32}1,2,3,4,5,6,7,8,
{2}1/Ch[2:1],{32}B1,B2,B3,B4,B5,B6,B7,B8,,,,,,,,,{8}3qq8[8:3],
5,3,6,6,7,5pp1[2:1],4,
5,2,2,3,4-8[8:1],5,{4}4,
{8}5pp8[8:3],3,5,2,2,1,3qq7[2:1],4,
3,6,6,5,4-8[8:1],3,{4}4,
{8}1-5[6:1],7,1,7<3[4:1],E3,E2,E1,E8,
1x-4[8:1],7x-4[8:1],1-3[8:1],7-3[8:1],1-5[8:1],7,{4}1,
{8}8-4[6:1],2,8,2V46[4:1],E7,E8,E1,E2,
8xp4[8:1],2x>5[8:1],8<6[8:1],2p6[8:1],8-4[8:1],2,{4}8,
{8}2>5[8:1],1,8/2x,7>2[8:1],6,5/7x,4<7[8:1],3,
2/4x,1>4[8:1],8,7/1x,6<1[8:1],5,{4}4x/6x,
{8}7x-4[8:1],8,1/7x,2-7[8:1],3,4/2x,5-2[8:1],6,
7/5x,8-5[8:1],1,2/8x,3-8[8:1],4,{4}5x/3x,
{16}7v4[8:1],7,{8}8,7,2>5[8:1],5-1[8:1],2,6,7h[8:1],
{16}2-6[8:1],2,{8}8,2,8V64v7[4:1],5,8,{16},,,,2v5[8:1],
2x,{8}1,2,8-4[8:1],4-8[8:1],8,1b,1b,
{16},,,,1,7,1,7,2,6,2,6,3,5,3,5,
{4}4b,{8}2v5V31-7[16:9],4,2,7bV53v6b[8:3],,7b,
{16},,,,,,8,7,{8}8-4[8:1],7-3b[8:1],8,7,
{4}1b,{8}7v4<2b[16:9],5,7,3b-6-2-5[2:1],,3b,
,,,,{2}Ch[4:1],
{4}2bv5V31b[8:3],2,{8}6,6bV42[4:1],,2bV86b[4:1],
,6b>2[4:1],,2b<6b[4:1],,6b,,,2/5,
{16}3,4,{8}3h[16:1],{16}6,5,{8}6h[16:1],{16}2,1,{8}2h[16:1],{16}7,8,
{4}7h[16:1],{8}1/5,1,2/6,2,3/7,3,
{2}4b/8bh[4:1],{12}3,4,2,6,5,7,
{2}8b/1bh[4:1],{12}7,5,6,2,4,3,
{2}1b/8bh[4:1],{12}2,1,3,7,8,6,
{2}8b/1bh[4:1],{12}6,8,7,3,1,2,
(180){2}1b/8bh[4:1],{12}3x,4,3,6,5,6,
(170)3x,4,5,3,4,5,3x/7bx,4,5,3,4,5,
(150)2x,3,4,1,2,3,(130)8x,1,2,7,8,1,
(100)6x/2bx,7,8,4,5,6,3x/7bx,4,5,2,3,4,
(90){4}5b/1b-7-2-6-3-5b[0.6667##3.3702],(95),(100),(105),
(110),(115),(120),(130)8bx,
(140)2b/7b,{16}1,5,4,5,2,6,6,6,3,5,4,5,
3,6,{32}6,5,{16}6,3,5,{32}5,4,{16}5,1,4,{32}4,3,{16}4,2,6,5,6,
{4}1xh[8:1],{16}8,3,4,3,6,4,4,4,7,4,5,4,
6,3,{32}3,4,{16}3,6,4,{32}4,5,{16}4,8,5,{32}5,6,{16}5,7,3,4,3,
{4}8xh[8:1],{16}1,6,5,6,2,5,5,5,3,6,5,6,
2,5,{32}5,4,{16}5,3,6,{32}6,5,{16}6,1,5,{32}5,4,{16}5,2,6,5,6,
1b,,,6bV84[8:1],{8}6,3,{16}2b,,,1bV73[8:1],{8}1,5,
{4}5bx-8[8:1]*<6v8[8:1],5x-2[8:1]*>4v2[8:1],5xw1[8:1],5x,
(150)1bx,{16}3,5,4,5,2,4,3,4,1,1,5,5,
2,6,{32}4,5,{16}4,6,2,{32}5,4,{16}5,3,7,{32}4,5,{16}4,{4}8h[8:1],
(155)1b,{16}6,4,5,4,7,5,6,5,8,8,4,4,
7,3,{32}5,4,{16}5,3,7,{32}4,5,{16}4,6,2,{32}5,4,{16}5,{4}1h[8:1],
(160)8b,{16}3,5,4,5,2,4,3,4,1,1,5,5,
2,6,{32}4,5,{16}4,6,2,{32}5,4,{16}5,3,7,{32}4,5,{16}4,{4}8h[8:1],
(165){16}1b,,,2bV83[16:3],{4}2x,{16}5b,,,6bV47[16:3],{4}6x,
1bx-4[16:3]*v2-4[16:3],1x-6[16:3]*v8-6[16:3],1xw5[8:1],1x,
(170)8bx,{16}3x,5,4,5,(175)2x,6,5,6,1x,5,3,5,
(180)2x,6,{32}2,3,{16}4,7x,3,{32}7,6,{16}5,(185)3x,4,{8}2,{16}6x,5,{8}7,
(190){4}1bx,{16}6x,4,5,4,(195)7x,3,4,3,8x,4,5,4,
(200)6x,5,{8}7,{16}3x,4,{8}2,(205){16}6x,5,{8}8,{16}3x,4,{8}1,
(210){4}8bx,{16}4x,6,4,6,(215)3x,5,3,5,4x,6,4,6,
(220)3x,4,{8}3,{16}6x,5,{8}6,(225){16}3x,4,{8}2,{16}6x,5,{8}7,
(230){4}1bx,{16}5x,4,{8}5,(235){16}3x,4,{8}3,{16}6x,5,{8}6,
(240){16}3x,4,{8}2,{16}6x,5,{8}7,(245){16}3x,4,{8}2,{16}6x,5,{8}7,
(250){4}1bx,{8}2x/E8,2,(255)E7,2x,{4}2/E6,
(260)8bx,{8}6x/E1,6,(265)E2,6x,{4}6/E3,
(270)1bx,{8}4x/E1,4x,(275)E8,4x,{4}4x/E7,
(280)8bx,{8}7x/E2,7x,(285)E3,7x,{4}7x/E4,
(290){16}8bx<5[0.2069##0.1485],,,1x,(295){8},2x,(300){16}3x>8[0.2##0.1436],,,4x,(305){8},5x,
(310){16}6x>3[0.1916##0.1391],,,7x,(315){8},8x,(320){16}1x<6[0.1875##0.1348],,,2x,(325){8},3x,
(330){6}4x,{12}4x,(335),{6}5x,(340)5,{12}4x,(345),{6}4,
(350){12}6x,3,6,3,6,3,7,2,7,2,7,2,
8xV27-3-6-4[0.8554##2.2502],1,8,1,8,1,8V27-3-6-4[0.5143##2.25]*V27-3-6-4[0.5143##2.25],1,8,1,8,1,
8xV27-3-6-4b[0.1697##2.2502],1h[#2.363281],{1},{4},,,{12},(400){1},
{2},,,,,,(100)Ch[2:1],
{4}1bx>7[0.6##1.0455],(110),
(120)7x>4b[0.5##0.7758],(130),(140){8}5x,(150)5,(160)6,(170)6,
(180){16}2,(185)7,(190)1,(195)8,(200){4}2b/7b,{8}1/2>5[8:1],8,2,7,
{16}7v4b[8:1],8,6,1,{8}7,2,1-5b[8:1],8/2,1,7,
{16}7<4[8:1],8,,8,{8}7,1,2v5[8:1],5-1b[8:1],2,7,
{16}7-3[8:1],8,,8,{8}7,1,1-5[8:1],6,1,6,
6,{16}4,5,{8}4/6x,3/7,2v5[8:1],8,2,{16}7,7,
{8}4h[8:1],{16}6,4,{8}6,8/1,7v4[8:1],1,7,{16}2,2,
{8}5h[8:1],{16}3,5,{8}3,2/7,4/3,2,5/6,7,
8-4[8:1],2,{16}8/1,8,,,{8}2v5[8:1],6v1b[8:1],2,6,
{32}3x,4x,5x,6x,7x,8x,1x,2x,{4}3bx/7bx,{8}8/7<4b[8:1],1,7,2,
{16}2v5[8:1],1,3,8,{8}2,7,8-4[8:1],1/7,8,2,
{16}2>5b[8:1],1,,1,{8}2,8,7v4[8:1],4-8b[8:1],7,2,
{16}2-6[8:1],1,,1,{8}2,8,8-4[8:1],3,8,3,
3,{16}5,4,{8}5/3,6/2,7v4[8:1],1,7,{16}2,2,
{8}5h[8:1],{16}3,5,{8}3,1/8,2v5[8:1],8,2,{16}7,7,
{8}4h[8:1],{16}6,4,{8}6,7/2,8,1,{32}8b,7,6,5,{8}4,
1,8,{32}1b,2,3,4,{8}5,7x/1x,{32}7x/1x,6,5,4,{8}3,8x/2x,
{32}2x/8x,3,4,5,{8}6,8x,{32}8x,7/1,6/2,5/3,{8}4,{16}1,8,2,7,{8}1,
2v5b[8:1],8,{16}2,1,,7,{8}7v4[8:1],1,{16}7,8,,1,
{8}1-5b[8:1],8,{16}1,8,,,3,4,3,2,{8}3,{16}6,5,
6,7,{8}6,{16}1,8,1,8,{8}2/7,{16}3,4,{8}2/5,{16}1,8,
2,7,3,6,4,5,3,6,{8}1b,{16}8x,1,7,2,{8}8,
7<4[8:1],1,{16}7,8,,2,{8}2>5b[8:1],8,{16}2,1,,8,
{8}8-4[8:1],1,{16}8,1,,,6,5,6,7,{8}6,{16}3,4,
3,2,{8}3,{16}8,1,7,2,{32}8b,7,6,5,{8}4,{32}2,3,4,5,{8}6,
{32}8,7,6,5,4,3,2,1,8/3,4,5,6,7,8/6,1/5,2/4,{8}3b,{16},,,,1b/8b,1b/8b,
2b/7b,,,3b/C,,,{8}7b/C,{4}C,{32}1b,2/8,3/7,4/6,{8}5,
{64},,,,,,,,6p6>2b[4:7],2xp2<6[4:7],
E
