&title=海神寓拝
&artist=sasakure.UK
&first=2.22
&des=M1zukure
&lv_5=14
&inote_5=(200)
{4}3h[4:5]2,,,7qq4[4:4],,,2h[4:5],,,5pp1[4:4],,,4h[4:3],,,{24}8-4[8:1],7/3,6/2,1/5,,,
{8}6-2[8:1],6,5,5,
{24}1/5,8/4,7/3,6/2,,,
{4},1,2-6[4:1],6-4[8:1],7,8-4[4:1],4-6[8:1],3,2V48[8:3],7,6,
{4}5/1,,6,6-2[4:1],2-8[8:1],3,4-8[4:1],8-2[8:1],7,6,5/3,4-1[8:1]*-7[8:1],
{4}4,,2,3-7[4:1],7-2[8:1],6,5-1[4:1],1-6[8:1],2,3-7[8:2],7V53[8:3],8,
{4}8h[4:1],,2,1-4[8:1],1-6[8:1],1,5-2[8:1],5-8[8:1],5,1h[8:6],,,
{4}7bpp2[4:46],,,,,,4h[4:2],,,5,4,3,{16}2,3,{8}4,{4},,5h[4:2],,,
{8}3,4,3,4,3,,{8}6,5,6,5,6-3[8:1],,{4}6,,5,4h[4:2],,,5h[4:2],,{8},,4,,
{4}5,6,{16}7,6,{8}5,{4},,5h[4:2],,,{8}3,4,3-1[8:1],4,3,,7,1,8,2,4,3,
{8}5/2h,6,7,1,2,3,6,7,8,2,3,4,
5h/1,8,7,5,4,3,8,7,6,4,3,2,
7,6,5,3,2,1,6,5,4,2,1,8,
5h,6,7,1,2,3,6,7,8,2,3,4,
6h[4:1],5,5,3,4,2,8h[4:1],1,1,7,5,6,
3h[4:1],4,4,2,1,8,6h[4:1],5,5,7,8,1,
2h[4:1],3,4,3h[4:1],4,5,6h[4:1],5,4,7h[4:1],8,1,
2,4,3,5,4,6,5,4,3,1,8,7,
{8}6-4[8:1],,6,3-1[8:1],,3,
4-6[8:1],,4,8-4[8:1],,8,
7-5[8:1],,7,1-3[8:1],,1,
8-4[8:1],,8,2>5[8:1],,2,
6<1[8:1],,6,3<6[8:1],,3,
7>2[8:1],,7,5-2[8:1],,5,
1-6[8:1],,1,3-8[8:1],,3,
4-7[8:1],,4,1>4[8:1],,1,
8q5[8:1],,8,1p4[8:1],,1,
8<5[8:1],,8,2>5[8:1],,2,
8-4[8:1],,8,1-5[8:1],,1,
7<4[8:1],,7,1,,,
{8}8/2,3,4,{8}8/5,7,6,
{8}5/3,2,1,
{8}8/5,6,7,
{4}8<4[4:1],4>5[16:7],,{16}4,3,2,1,4,3,2,1,8,7,6,5,
{4}4/8b,,1-5[8:1],1<6[4:1],6>3[4:1],2,1s5[8:3],8,7,6-2[8:2],5,4,
{4}1/3,,8-4[8:1],8>3[4:1],3<6[4:1],7,8z4[8:3],1,2,3-7[8:2],4,5-1[8:1],
{4}8,,2-6[8:1],2>5[4:1],5<8[4:1],1,1-5[8:2],2,3,4-8[8:2],5,6,
{4}1/7-3[8:1],7/2-5[8:1],2/6-1[8:1],6b<3[100#8:7]/4bz8[100#8:7],{1},,,{16},,,,
{8}6,5,
{8}6h[8:5],,5,,,5,6h[8:5],,5,,4,,5h[8:5],,4,,,4,5h[8:5],,4,,3,,
{8}3h[8:5]
,,5,,,5,3h[8:5],,4,,5,,4h[8:5],,5,,,5,4h[8:5],,5,,6,,
{8}6z2[4:11],,4h[4:1],,,5,5,,4h,,4h,,5,,4h[4:1],,,5,5,,4h,,4h,,
{8}6z2[4:11],,5h[4:1],,,4,4,,5h,,5h,,4,,5h[4:1],,,4,4,,5h,,5h,,
{8}1-5[8:1],1,8,7,6,,4-8[8:1],4,3,2,1,,8-4[8:1],8,5,6,7,,7-3[8:1],7,2,1,8,,
{8}2v5[8:1],2,1,8,7,,6v1[8:1],6,5,4,3,,3v8[8:1],3,7,6,5,,4v7[8:1],4,1,2,3,,
{8}5<8[8:1],5,4,3,2,1,8>3[8:1],8,7,6,5,4,3<6[8:1],3,2,1,8,7,6<1[8:1],6,5,4,3,2,
{16}1,2,3,4,5,6,
7,8,1,2,3,4,
5/8,7,6,5,4,3,2,1,8,7,6,5,
{4}8/4,2-7[8:1]/6-3[8:1],2/6,1b/5b,,
{8}3,4,
{8}2-5[8:1],5-2[8:1],2V48[4:1],8,7,7,6-2[8:1],6,1,1h[4:1],{24}3,4,5,6,,,
{8}3-5[8:1],6-8[8:1],3V15[4:1],6,3,7,8-4[8:1],8,3,3h[4:1],{24}2,1,8,7,,,
{8}4-8[8:1],8V25[4:1],4,6,7,7,8-4[8:1],4V61[4:1],8,3,2,2,
{16}2/8,3,4,5,6,7,
8,1,2,3,4,5,
7,6,5,4,3,2,
1,8,7,6,5,4,
{8}2-5[8:1],5-2[8:1],2V84[4:1],7,6,6,5-1[8:1],5,4,4h[8:1],{24}8,7/3,6/2,5/1,,,
{8}6-3[8:1],3-6[8:1],6V48[4:1],1,2,2,3<6[8:1],3,7,7h[8:1],{24}8,1/6,2/5,3/4,,,
{8}2-6[8:1],6V41[4:1],2,8,{24}1,8,7,6,,,{8}5-1[8:1],1V74[4:1],5,3,{24}4,3,2,1,,,
{8}1/5,1/5,2/6,2/6,7/3,7/3,{16}4,5,6,7,8,1,{24}2,3,4,
5,6,7,{32}8,1,2,3,
{4}7bs3[4:9],,,
,,,
,,,
,,{32},,,,,,,
{4}7s3[4:9],,,
,,,
,,,
,,,
{4}3h[4:2],4,5,6h[4:2],5,4,2h[4:2],4,5,7h[4:2],5,4,
{4}4`3h[4:2],5,5,5`6h[4:2],4,4,5`4h,5,5,4`5h,4,4,
{8}5-1[8:1],5,4,
3,2h[4:1],,
{16}1,8,7,6,1,2,
3,4,5/1>5[4:1],
,,,
{8}5<1[4:1],,1,
,2h[4:1],,
{16}3,4,5,6,7/4,3,
2,1,8w4[8:1],
,,,
{8},,,,
{8}4-8[8:1],4,5,
6,7h[4:1],,
{16}1h[4:1],,,,
8,7,
6,5,4/8,3,2,1,
8/4,7,6,5,
{8}8-2[8:1]/4-6[8:1],,8-5[8:1]/4-1[8:1],,8-4[8:1]/4-8[8:1],,
,,,,
{8}2>5[8:1],2,1,8,7h[4:1],,
{16}1h[4:1],,,,8,7,6,5
,1,2,3,4,{4}5<1[4:1]/8,1>5[4:1],5,6h[4:1],
{16}7,8,1,2,3/8,7,
6,5,4-7[8:1]/3,,,,
{8}2-5[8:1],,8-4[8:1],,1-5[8:1],,6-1[8:1],,3-8[8:1],,7-4[8:1],,
{8}2-5[8:1]/7,,8-4[8:1]/2,,1-5[8:1]/8,,1bV35[4:16]/5bV71[4:16],,
