&title=ブルベ、恋をする
&artist=R Sound Design
&first=0.01
&des=雑草
&lv_5=12
&inote_5=(106)
{1},
{24}4,,,4,,,7,,4,,,4,,,7,4,,,74,,,,,,
{16}3h[16:7]/4,,2,,4,4,,1,{24},,2,1-4[8:1],,3,4,,,1,,,
{16}6h[16:7],,7,,5,5,,4,{24},,3,4>1[8:1],,6,5,,,,,,
{16}7h[16:7],,8,,6,6,,5,{24},,7,6-1[8:1],,4,5,,,6,,,
2,,3,,3,,47,,6,,6,,35,,4,,4,,45,,,,,,
3h[8:1],,,4h[8:1],,,5-7[8:1],,5,7V51[4:1],,7h[24:7],,,,,,,,,,,,,
7h[8:1],,,5h[8:1],,,4-2[8:1],,4,2V46[4:1],,2h[24:7],,,,,,,,,,,,,
1h[8:1],,,8h[8:1],,,1-7[8:1],,1,7V15[4:1],,7h[24:7],,,,,,,,,,,,,
6-1[8:1],,,6h[4:1],,,,,,,,3,4-7[8:1],,4,3h[4:1],,,,,,,,,
6h[8:1],,,5h[8:1],,,4-2[8:1],,4,2V48[4:1],,2h[24:7],,,,,,,,,,,,,
2h[8:1],,,4h[8:1],,,5-7[8:1],,5,7V53[4:1],,7h[24:7],,,,,,,,,,,,,
8h[8:1],,,1h[8:1],,,8-2[8:1],,8,2V86[4:1],,2h[24:7],,,,,,,,,,,,,
74,,6,,5,,24,,3,,4,,75,,6,,5,,24,,,,,,
{16}1v2[4:1]/2,,,,2v3[4:1],,,,3>6[4:1],,,,4,,4,,
5pp5[4:1],,,,4/5qq5[4:1],,,,1,,,,1,,2,,
3/8qq7[4:1],,,,8pp1[4:1],,,,8,,,,8,,1>4[4:1]/7,,
,,4qq5[8:3],,5pp4[4:1],,6,,,,,,,,,,
2p3[4:1],,,,3q1[4:1],,,,1p4[4:1],,,,4>8[4:1],,,,
8q6[4:1],,,,6p8[4:1],,,,8q5[4:1],,,,5<1[4:1],,,,
1V37[4:1],,,,7pp2[8:3]*>2[8:3],,,,,,,,,,,,
7h[8:1],,,,7h[8:1],,,,7V51[8:1],,7h[4:1],,,,,,
{24}2/8-4[8:1],,,37,,,18,,,2,,3,4<7[8:1],,2,1-5[8:1],,3,4,,,1,,,
8>3[8:1],,,26,,,87,,,6,,4,5-1[8:1],,,8/2-4[8:1],,,5,,,2,,,
8<5[8:1],,,46,,,28,,,3,,5,4-8[8:1],,4,5-7[8:1],,,4,,,5,,,
1-6[8:1],,,6<4[4:1],,,1,,,5,,,,,,8v5[8:1]*q4[8:1],,,26,,7,8,,,
,,,57,,,8/1-5[8:1],,,2-6[8:1]/4,,,1,,,2,,,4,,2,1,,,
,,,24,,,18,,,5/7<3[4:1],,4,8,,,3,,,2,,,1>4[8:1],,,
1,,,1<6[8:1]/7,,,,,,1>4[8:1]/3,,,,,,17,,,8,,,13,,,
2h[6:1],,4,,4,,3h[6:1],,5,,5,,4h[6:1],,6,,6,,57,,,,,,
{16}34,,2h[16:5]/1,,4,4,,1,{24},,3,4-1[8:1],,2,1,,,4,,,
{16}6,,7h[16:5]/8,,5,5,,1,{24},,7,8<5[8:1],,2,1,,,,,,
{16}3,,5h[16:5]/4,,6,6,,4,{24},,6,5-8[8:1],,3,4,,,5,,,
1,,2,,3,,84,,7,,6,,85,,1,,2,,5h[8:1]/3h[12:1],,,,,,
{16}2>8[8:3],,,1h,,,8p2[4:1],,,,1h,,5h,,6h,,
1>7[8:3]/7h,,,6h,,,7p1[4:1],,,,8h,,4h,,5h,,
8>6[8:3]/6h,,,7h,,,6z2[4:1],,,,7h,,5h,,6h,,
1h/4<7[8:1],,,4h[16:3],,,,,2h/5<8[8:1],,,5h[16:3],,,,,
7<1[8:3],,,8h,,,1q7[4:1],,,,8h,,4h,,3h,,
8<2[8:3]/2h,,,3h,,,2q8[4:1],,,,1h,,5h,,4h,,
1<3[8:3]/3h,,,2h,,,3s7[4:1],,,,2h,,4h,,3h,,
8h/2-6[8:1],,,2h[16:3],,,,,1h/8-4[8:1],,,8h[16:3],,,,,
3pp2[4:1]/8,,,,2pp1[4:1],,,,1s5[4:1],,,,8,,8,,
8-4[8:1],,,,8/4qq4[4:1],,,,8/4pp4[4:1],,8,,7,,7,,
8-5[8:1],,,,1q8[4:1]/8p1[4:1],,,,18,,,,,,3/7h[8:3],,,,
2,,1>1[4:1]*<1[4:1],,28,,1,,,,,,,,
2-6[4:1],,,,6-2[4:1],,,,2pp4[4:1],,,,8,,,,
7-5[8:1],,,,1-3[8:1]/7,,,,1/8z4[4:1],,,,3,,3,,
2<6[4:1],,,,6v4[4:1],,,,4,,,,5,,46,,
3h[8:1]/7h[8:1],,,,3h[8:1]/7h[8:1],,,,3-7[8:1]/7-3[8:1],,3h[8:1]/7h[8:1],,,,,,
{24}2/8-5[8:1],,,46,,,18,,,2,,4,5<8[8:1],,2,1v4[8:1],,3,5,,,1,,,
8>3[8:1],,,36,,,87,,,6,,4,5-1[8:1],,,8/2-4[8:1],,,5,,,2,,,
8<5[8:1],,,45,,,28,,,3,,5,4-8[8:1],,4,5-7[8:1],,,4,,,5,,,
1v6[8:1],,,6<4[4:1],,,1,,,5,,,,,,8>3[8:1]*q4[8:1],,,26,,1,8,,,
,,,57,,,8/1-5[8:1],,,2-6[8:1]/4,,,1,,,2,,,4,,2,1,,3,
,,,24,,,18,,,5/7V53[4:1],,4,8,,,3,,,2,,,1-6[8:1],,,
78,,,6>3[8:1]/1,,,,,,1q5[8:1]/6,,,,,,16,,,7,,,18,,,
2/1h[6:1],,3,,4,,1/8h[6:1],,2,,3,,4/8h[4:1],,,,,,5,,7,6,,4,
3-6[8:1],,,46,,,7>4[8:1]*<4[8:1],,,8,,7,,,,,,,3q4[4:1]/4<3[4:1],,,25,,34,
,,,,,,,,,7,,5,6-3[8:1],,,54,,,2h[8:1],,,,,8<3[8:1],
,,,8h[8:1],,,,,,8,,1>6[8:1],,,,1h[8:1],,
,,,,2,,,
3<5[8:1]/5,,,6,,,3/7-5[8:1],,,8-4[8:1],,,7-3[8:1],,,8-2[8:1],,,7,,,8,,,
4h[8:1],,,3,,1,2h[8:1],,,3,,14,,,,45,,,6p5[4:1]/5>6[4:1],,,47,,65,,,,,,,,,,2,,4,3,,,4/5h[8:1],,,7h[8:1],,,6>3[8:1],,5,
,,,36,,,,,,3-7[8:1]/4,,,,,,32,,,,,,1,,,
8-2[8:1],,,7,,,6-8[8:1],,,5,,,4-6[8:1],,,3,,,2>7[8:5],,,1,,,
1h[8:1],,,,,,2h[8:1],,,,,,3h[8:1],,,,,,8/1-5[8:1],,,7,,,
1/5pp5[4:1],,,,,,3/5qq5[4:1],,,,,,1,,,,,,2,,,1,,,
1/8pp1[4:1],,,,,,7/8qq7[4:1],,,,,,8,,,,,,8>3[2:1],,,,,,
7,,,6,,,6,,,5,,4,,,5h[8:1],,,3,4,,,25,,,
3pp2[4:1]/8,,,,,,2pp1[4:1],,,,,,1s5[4:1],,,,,,8,,,8,,,
7v4[8:1],,,,,,7/4qq4[4:1]*pp4[4:1],,,,,,4,,,,,,,,,27,,,
1-4[8:1]/8,,,,,,1q8[4:1]/8p1[4:1],,,,,,18,,,,,,,,,27,,,
1,,2,,3,,84,,7,,6,,26,,3,,3,,4h[8:1]/6h[24:5],,,,,,
E
