&title=The snow white princess is
&artist= Noboru↑-P
&first=0.2
&des=Ealy
&lv_6=14
&inote_1=
&inote_6=(200)
{4}A1h[8:29],{8}5,5h[12:3],{4},,D1h[8:21],{8}4,4h[12:3],{4},,E1h[8:13],{8}6,6h[12:3],{4},,C,{8}4,4h[12:3],{4},,
{4}1-5[8:1]/5,{8}1/7,{4}8-4[8:1],{8}3/8,2,1,{4}8>4[8:1],{8}8/6,{4}7-4[8:1],{8}3-8[8:1],3,6,
{4}6b-1[8:1],{8}4,{4}3p7[8:1],{8}6,5-1[8:1],5,
{8}4/5b,,2,2,1/5,,7,7,{4}8/4<8[3:2],{8}3,2,,2,1,,
{16}2,4x,3,,{8}6,6,7/5,7/5,8/1,8/1,2x,5/3,
{2}6bh[2:1]/5bh[2:1],
{4},7h[2:1]/4,{8}3,3,3,3,3,3/C,,
{8}8/1,8/1,7/2,B6/B3,8/1,8/1,7/2,E6/E4,8/1,7/2,6/3,{4}5bh[4:1]/4bh[4:1],,
{8}1-5[8:1]/6,,1,6,7,8,1/3,2v5[8:1],,2-7[8:1],,2,4x-1[8:1],,4-7[8:1],,A4f,,2,6bx/1b,,7,8-3[8:1],,A8f/6,,5,4/2b,,3,3qq1[8:1],,7,,6,5/1,2,3,4/8,7,6,1/5z1[4:2],,,4h[2:1],,,,,8,8,6/B3,,1,1,B6/3,2x,1-5[8:1],1,7,7h[4:1],,,,8-4[8:1]/4,,8,3,2,1,,1<6[8:1],,1/2,3,4-8[8:1],4,,5b,,1-5[8:1],,1/6,7h[4:1],,3,4-8[8:1],,4/3,,2,1h[4:1],,7,6/8xw4b[8:1],,8b<2[3:2],,{4}{8},1,1,,
8,8,,1>6[3:2],,6,6,,7,7,,8x>4[3:2],,6,6,,5,5,,5-1[4:1],,1-4-7[4:1],,7-2[4:1],,2x>8[4:1],,1,,1x,2,,2,3,,4>1[8:1],,5,6,,6,7,,8>7[2:1],,,,,,1,,4/3,,2,2,,7/1-5b[8:1],,1x>7[3:2],,,8x,8,,1x,1,,8<3[3:2],,3,3,,2,2,,1x<5[3:2],,3,3,,4,4,,4-8[4:1],,8-5-2[4:1],,2-7[4:1],,7<2[4:1],,8x,,8,7,,7,6,,5<8[8:1],,4,3,,3,2,,1<2[2:1],,,,8,,7,6,5,,4,4h[4:1],,,2,,{4}7bh[4:3]/B3,,,{8}1,1,2x,2,3,3,4,4,5,5,Cfh[4:2]/B2/B3/E3/B6/B7/E7,{4},,,
{8},{4}E2h[4:3],B2h[4:2],E6h[4:2],B6hf[4:1],
{16}1,2,{8}3-7[8:1],,6,6-4[8:1],,,7,8,,1b-7[8:1]*-6[8:1],,1-4[8:1],,1/5-7[8:1],,5-3[8:1],,5-1[8:1],,5/2x-5[8:1],,2,,6bpp4[4:1]/3bqq5[4:1],,,,,,6-3[8:1]/2-7[8:1],,6/2,,,,1-5[8:1],,6,6q3[4:1],,,4,4<3[4:1],,,,6,7-2[8:1],,7/4,4-1[8:1],,8-3[8:1],,8x/6b,,{16}7,6,5,,8,7,6,,1,8,7,,{8},3h[4:1]/6,,,7,7-1-5[4:1]/4,,,2,3,,4-7[8:1],,4/3-8[8:1],,4-6[8:1]/3,,1-3[8:1]*-7[8:1]/4,,1,,5/4,,{16}6,7,{8}8/2bh[4:1],,,4-6[8:1]*-7[8:1],,4-2[8:1]*-1[8:1],,4w8[8:1],,4b,,,,2-6[8:1],,2/8-4[8:1],,8>3[8:1],,6,6h[8:3],,,3,3,
{4}8b-4[8:1],{8},5b-1[8:1],,,4b-7b[8:1],,4/8,,{16}1,,2,,,8,4,7,3,6,
{1}2b^1^8^7^6^5^4^3^2qq2pp2b[2:3],{4},,{8},7xh[4:1],,,
{1}5xpp4b[7:6]/3xqq4[7:6],
{4},{8}8h[4:1],7h[4:1],,6xh[4:1],,5h[8:1],4h[4:1],,2,2,1/3,1/3h[2:1],,,{16}8,7,6,,{8}5xh[4:1]/2b,{16},,1,2,3,,{8}8b/4xh[4:1],,7,7,1,6-4[8:1],6,2-8[8:1],2,7,{16}6,5x,,,{16}3,4,3,4,2,5,2,5,1,6,1,6x,
{8}8b/7bx,,1-5[8:1],1,6-2[8:1],6,3v8[8:1],3x,5b,,5-7[8:1],5,3,,2,1,
{4}C,{16}4x,5,4,5,4,5,4x,3,2,1,8x,4x,3,2,1,8x,4x,3,2,1,8x,7,6,5b,{8},8,7/1,,4-1[8:1],4,7-2[8:1],7,,4,5/3b,,1-5[8:1],1,8-4[8:1],8,,2,2,8b,,7/2b,1,,7/3,4,,8<6[8:1]/1-6[8:1],,8-3[8:1]/1>3[8:1],,8/1,,5xw1[8:1]/4xw8b[8:1],,Cf,,,7,8-4[8:1]/4,,,3,2-6[8:1],,1-5b[8:1]/2,,8-4[8:1]/1x,,7/8b,,6x<1[4:1],,1>5[4:1],,5<1-5[8:3],,2-4[8:1],,2b,,,,5-2[8:1]/1-6[8:1],,5x<4[2:1]/1x,,3xh[4:1],,,,1,1,{16}7,8,{8}7h[8:3],,,4-1[8:1],4-7[8:1],,,,1,{16}2,3,{8}4,8,{16}8x/4x,7x/3x,6x/2x,,1x/5x,2x/6x,7x/3x,,{8}8bx,
{16}2,3,4,,1,2,3,,8,1,{8}2,6-1[8:1]/3x,,6/4,,,2,2,,,3,5/E2,,4/E7,,6/B2,,1-5[8:1],,7/1-6[8:1]*-3[8:1],,1b-4[8:1]*-5[8:1],,1-7b[8:1],,1/3,3,,,2>5[8:1]/6<1[8:1],,6/2,,7/3-1[8:1],,7pp4[4:1]/3,,,,3,,2,,1,,8-4[8:1]/4,8/4,,,,,2,1/3b,8,7b/2,1,,8b,,6-2[8:1],,4-1[8:1],,4,,{16}7,2,5,1x>6[4:2],,,{8},7,7,8,,1,1<5[4:2],,2,3,4,4,,3,3>7[4:2],,7,7,6,5,,4,4-8[8:1],,,1>4[4:1],,6,7,,8>3[4:1],,7,7,,5>2[4:1],,6,6,,8-5[4:1],8,,4>1[4:1],,6,6,,7-2[4:1],7,,4,,,3-8b[8:1],,,5x-1[8:1],,2,2>6[4:2],,2,,7,7,,8,,1,1-5<7[4:2],,3,3,,2,,1,1-5>2[4:2],,5,6,,7,,8,8-4[4:1],,3,2,1,8x,7,6x,5b/4,,1,8-5[8:1]/2-5[8:1],,,,4,5/3-5-8[4:1],,2,,1,,
{8}1,{16}7,8,6,1,{8}5b-2[8:1],,8,8b-4[8:1],,5,5bpp5b[3:14],{1},,,{4},,{4},5bqq5b[8:7],{8},,,,,,,
E,
