&title=ㅤ
&artist=ㅤ
&first=0.025
&des_1=DRTXYCUB
&des_2=DRTXYCUB
&des_3=DRTXYCUB
&des_4=DRTXYCUB
&des_5=DRTXYCUB
&des_6=DRTXYCUB
&lv_6=14
&des_7=DRTXYCUB
&des=DRTXYCUB
&inote_6=(150){8},E2/B2/A2,{32},E3/A3/B3,,,,
,{16}B4/A4/E4,{1},{4},,4,
,,2,
1,,,2,
3,,,4,
{64}3,{4},{16},,{32},{64}7/1-5[64:21],,,,,,,{32}E1,{64},,,,,B2,,,,,,,{32}B7,,,B4,,,{16}E6,
{32}2v7>1q3[4:3]*v7>1q3[4:3],B2,{16}C,,,,,,,{4}5,{8}7,{16}7,{32}7,8,
{8}1h[4:3],,,4,4,5,{4}4,
{32}5/7v2<8-6p5[4:3]*v2<8-6p5[4:3],B7,{16}C,,,4,,,3,{4}3,{8}2,{24}3,2,1,
{4}8h[4:3],{8},,,,5,6,
{32}7/3v2-8>4[4:3]*v2-8>4[4:3],B3,{16}C,,,,,{8}6h[16:1],6,B5,7,7,
{4}8h[4:1],3h[4:1],{8}8h[8:1],,,2/7v6-4<5-3q8[8:7]*v6-4<5-3q8[8:7],
{32}7/1h[2:1],B7,{16}C,,,,,,,,,,,,,1,2,
{8}3h[16:7],,,,,7/8-4[8:1],2/1,8x/1h[16:13],
{16},,,,,,,,,,,,,,,,,B1h[8:1],
,,,,,,{8}3/1,3/1-5[8:1],2/8x,1/7,
,,,,,1/7-3[8:1],8/2x,7/1,
,4/2,{4}3h[16:5]/5xh[16:5],{8},5/3,6/2x>5[8:7],7/1,
{4}2b/8h[8:1],{8}8,7x,{4}8h[8:1],{8}7xq6[8:7],8h[16:1],
{4}7b/2h[8:1],{8}2,3x,2,2,3x,4,
5/3b,5/3,6/4,4/6x,3/4b,4/2,6x/5,{16}7/5,7,
4b,4,6,6,3,3,5,5,{32}2,3,4,5,6,7,8,1,2,3,4,5,6,7,8,1,
{24}C,,,,,,B3,B4,{12}E5,B7,{16}1-4[8:1],6,6,1,{8}1/8-5[16:1],{16}7,8/1,
,2-6[16:1],,,{8}2/1-5[16:1],{16}7h[32:1],1/2,,3-6[16:1],,,{8}3/2-7[16:1],{16}1,3/2,
,4,4-1[8:1],5,{8}6/3,4/7,{16}8-5[8:1],2,2,8,{8}8/1-4[16:1],{16}2,1/8,
,7-3[16:1],,,{8}7/8-4[16:1],{16}2h[32:1],8/7,,6-3[16:1],,,{8}6/7-2[16:1],{16}8,6/7,
,5,5-8[8:1],4,{8}3/6,5/2,{16}4-2[8:1],6,6,4,{8}4/6-8[16:1],{16}5,6/4,
,2-8[16:1],,,{8}2/5-7[16:1],{16}4h[32:1],5/2,,1-7[16:1],,,{8}1/4-6[16:1],{16}3,4/1,
,8,8-4[8:1],7,{8}1/6,8/7,{16}5-7[8:1],3,3,5,{8}5/3-1[16:1],{16}4,3/5,
,7-1[16:1],,,{8}7/4-2[16:1],{16}5h,4/7,,8-2[16:1],,,{8}8/5-3[16:1],{16}6,5/8,
,1,1-5[8:1],2,{8}8/3,1/2,B3,B3,{16}E8,B7,B6,E6,
{1}8bh[1:4]/Cf/B3h[1:7]/B4h[1:7]/E4h[1:7],
,,,,,,{16},,,E8/C,
,,{8}B7/C,,B6/C,{4}E6/C,
{8}6b/4bv6[16:3],8/2,6/4,{16}7,7h[8:1],,5,7,5h[32:1],8,5,{8}6xh/1-5[8:1],
8/5-7[8:1],1/6xh,4,{16}2,2h[8:1],,4h[32:1],8,4h[32:1],1,4,2,4,
{8}3b/5bv8[16:3],7/1,5/3,{16}2,2h[8:1],,5,1,5h[32:1],8,5,{8}7xh/4-8[8:1],
5/8-6[8:1],4/7xh,1,{16}3,3,5-1-7[16:3],4h[32:1],6,4h[32:1],{8}5,2,
6bx/3bv8[16:3],4/1,6/3,{16}5,5h[8:1],,3,7,4h[32:1],8,5,{8}2xh/6v1[8:1],
5/1-3[8:1],6/2xh,8,{16}7,7h[8:1],,4h[32:1],1,4h[32:1],8,4,7,4,
{8}3b/6bv8[16:3],8/5,6/3,{16}2,2h[8:1],,6,1,5h[32:1],8,4,{8}3xh/7v4[8:1],
8/4-2[8:1],7/3xh,5,{16}6,6h[8:1],,8h[32:1],5,8h[32:1],{8}4h[16:1],6h[16:1]/2h[16:1],
{4}3h[4:1]/E7h[4:29],{8}B7,2,{4}2h[4:1],{8}B6,3h[8:1],
,3h[8:1],B7,2,{4}2h[4:1],B6,
3h[4:1],{8}B7,2,{4}2h[4:1],{8}B6,3h[8:1],
,3h[8:1],B7,2,{4}2h[8:1],2h[8:1]/B6,
3-8[16:1],{8}B7,2,{4}2-5[16:1],{8}B6,3-8[8:1],
,3,B7,3,3,2-5[16:1],{4}2/B6,
3-1[16:3],B7/3-5[16:3],3>1[16:3],B6/3<5[16:3],
3-1[16:3],B7/3-5[16:3],{8}3,6,7/3>1v3[2:7],8h[8:9],
,,,,,,,,,,,,5,
5,6,7h[4:1],
,,,,,7,8,7h[8:1],
,6,{4}5h[4:1],{8},5/4,3/6<8q5-8[2:7],7/2h[8:9],
,,,,,,,,,,,,4,
4,3,2h[4:1],
,,,,,2,1,2h[8:1],
,3,{4}4h[4:1],{8},4,3,2,
{24},,,,,,B3,B4,{12}E5,B7,{16}3>1[8:1],5,5,3,{8}3/7<5[16:1],{16}8,7/3,
,2<8[16:1],,,{8}2/6>4[16:1],{16}7h[32:1],6/2,,1<7[16:1],,,{8}1/5>3[16:1],{16}6,5/1,
,8,8-3[8:1],5,{8}1/6,8/7,{16}6<8[8:1],4,4,6,{8}6/2>4[16:1],{16}1,2/6,
,7>1[16:1],,,{8}7/3<5[16:1],{16}2h[32:1],3/7,,8>2[16:1],,,{8}8/4<6[16:1],{16}3,4/8,
,1,1-6[8:1],4,{8}8/3,1/2,{16}4-1[8:1],7,7,4,{8}4/7-4[16:1],{16}6,7/4,
,3-8[16:1],,,{8}3/6-3[16:1],{16}5h[32:1],6/3,,2-7[16:1],,,{8}2/5-2[16:1],{16}4,2/5,
,1,1-4[8:1],3,{8}4/2,6/1,{16}5-8[8:1],2,2,5,{8}5/2-5[16:1],{16}3,2/5,
,6-1[16:1],,,{8}6/3-6[16:1],{16}4h[32:1],3/6,,7-2[16:1],,,{8}7/4-7[16:1],{16}5,7/4,
,8,8-5[8:1],6,{8}5/7,3/8,{16},,,,,,,,C/B3f/B4f,
C,C,7,C,C,2,C,C,C,4,C,{4}2h[4:1],
{16}B4,B4,B4,1,B4,B4,7,B4,B4,B4,5,B4,{4}7h[4:1],
{16}B8,B8,B8,6,B8,B8,4,B8,B8,B8,2,B8,{4}4h[4:1],
{16}B2,B2,B2,3,B2,B2,5,B2,B2,B2,{8}7,{4}5h[4:1],
{16}C/B3f/B4f,C,C,8,C,C,4,C,C,C,2,C,4,C,1b,2b,
B5,B5,B5,3,B5,B5,8,B5,B5,B5,6,B5,8,B5,7x,7x,
B8,B8,B8,6,B8,B8,4,B8,B8,B8,2,B8,{8}4,{16}1b,2b,
{48}8b,7,6,5,,,,,,1b,2,3,{8}4,{48}7b/8,6,5,4,,,,,,,,,2b,3,4,5,,,1b/2,8,7,6,,,,,,,,,{4}4,
,,2,
1,,,2,
3,,,4,
{1}3,
{32}2/6h[4:3],B2,{16}C,{4},,,{16},,{32}7/3h[2:1],
B7,{16}C,{4},,,{16},,{32}3/7h[4:3],
B3,{16}C,,,,,,,,,,,,,7,6,
{32}3/5h[16:1],B3,{16}C,{32},,,(300)1s5b[32:5],{64},,,,,,,6,,,,,,,,,{2}1,
E
