&title=ツムギボシ
&artist=大国奏音 feat.timao
&first=0.857
&des=the JELLYFiSH
&lv_6=14
&inote_6=(190)
{4},,,{32},,,,,,E8,E7,{4}E6,,,,{32}E2,E3,E4,,,,,,{4},,,E5,,,,C,,,,D1,,,,
{16}2x/4,,3,4,3,,7x/5,,6,5,6,,2x/7x,,,,1x/5,,3,4,2,,4x/5x,,6,5,7,,4/8x,,,,
7x/5,,6,5,6,,2x/4,,3,4,3,,7x/2x,,,,6x,,57,,3x,,24,,1x-5[8:1],8,1x,8,1b,,,,
{8}4h[8:1]/3h[8:1],,71,{16}2,6,2h[8:1],,{24}4,5,6,{8}3,3,
4h[8:1]/2h[8:1],,81,{16}7,5,{8}7-3[8:1],,87,,
2h[8:1]/1h[8:1],,64,{16}7,3,{8}7h[8:1],{24}5,4,3,{8}6,6,
2-4[32:3],2,8-6[32:3],8,1-5[8:1],1,5,,
7h[8:1]/3h[8:1],,51,{16}2,4,3h[8:1],,{24}6,5,4,{8}2,2,
1h[8:1]/5h[8:1],,37,{16}6,5,{8}7-3[8:1],,78,,
1h[8:1]/2h[8:1],,46,{16}7,3,7h[8:1],,{24}5,4,3,{8}6,6,
{16}1,2,3,4,6,7,8,1,5,4,3,2,1-5b[8:1]/5b,,,,
{8}6x-8-4-7-1-6[16:25]`Cf,,,,,,,,2xh[4:3],,,,,,,,
B3,B4,B6,B5,E3,E4,E7,E6,E2,E8,E4,E6,C,,,,
3x-1-5-2-8-3[16:25],,,,,,,,7xh[4:3],,,,,,,,
B6,B5,B3,B4,E7,E6,E3,E4,C,B1/E1,E7/B7,E3,E5,,4x/5x,,
8<5[8:1]/5,,B7/E7,,1>4[8:1]/4,,B2/E3,,
7-3[8:1]/5,,E1/B8,,2-6[8:1]/4,,E1/B1,,
7-1[32:3]/5,,3-5[32:3]/7,,7-3[8:1]/3,,7/1,,
2h[8:1],4,6h[8:1],5,3h[8:1],4,7h[8:1],5,
8xw4[8:1],,8b,,1xw5[8:1],,1b,,4xw8[8:1],,4b,,5xw1[8:1],,5b,,
34,3,65,6,3b/7bh[8:1],{24}5,4,3,{8}6,2bh[4:1]/6b,
,5,4b/6b,46,3b-8[8:1]/7b-4[8:1],,,,
{4}5x-8[4:7],,,,,,,,4xh[4:3],,,,E5,,C,,
4x-1[4:7],,,,,,,,5xh[4:3],,,,4qq4[8:4]/5-8[8:4],,,,
3-5[8:1]/7,6-8[8:1],1-5[8:1]*-3[8:1],1x,
6-4[8:1]/2,3-1[8:1],8-4[8:1]*-6[8:1],8x,
7-3[8:1]/3,5>2[8:1],8-5[8:1]*-3[8:1],8x,
2-6[8:1]/6,4<7[8:1],1-4[8:1]*-6[8:1],1x,
5-1[8:1]/7-5[8:1],5x/7x,4-8[8:1]/2-4[8:1],4x/2x,
1>4[8:1]/5,1x<6[8:1],1-5[8:1],1x,
{8}34,2,56,7,4,53,6h[256:1]/2h[256:1],71,8bw4[4:2]/Cf,,,,,,,,
{16}57,,3,4,3,,6,,57,,2,,3>8[8:1]/4,,5,,
3,,,,1/7-3[8:1],2,3,,{4}7-5[32:3]*-1[32:3],7,
{16}24,,6,5,6,,3,,24,,7,,5/6<1[8:1],,4,,
6,,,,8/2-6[8:1],7,6,,{4}2-4[32:3]*-8[32:3],2,
{16}5-2b[8:1]/7,,,,6b/5b,,7,7,8-4b[8:1],,1,,2b/8b,,3,3,
5-2b[8:1],,6,,5b/7b,,8,8,1-4b[8:1]*-6b[8:1],,28,,1b,,,,
5/7-3[8:1],,7,,2-5[8:1],,2,,6-1[8:1],,6,,3,,3,,
48,,6,5,6,,3,4,3,,45,,2b/7b,,,,
6,,4,,37,,8,,2-6[8:1],1,2,1,2,,7,,
5pp4[16:5],,4,,52,,,,1w5[8:1],2,3,,1x,,,,
3,,5,,26,,1,,7-3[8:1],8,7,8,7,,2,,
4,,5,,27,,3,4,2,,6,5,7<4[8:1],,,,
{24}3xb/7xb,2,1,{8}8>3[8:1],,{24}4xb/8xb,5,6,{8}7h[8:1],,6xb/2bx>5[8:1],,
{24}6xb/2xb,7,8,{8}1<6[8:1],,{24}5xb/1xb,4,3,{8}2h[8:1],,3xb/7xb,,
Cf/E3/B3/E7/B6,,,,,,,,,,,,{16}D1,D2,D3,D4,D5,D6,D7,D8,
{8}D1/C,,,26,26,3,45,6h[8:2],,3,34,6,65,3,24,,
57,,,37,37,6,45,3,{16}A7,E7,E6,A5,A1,E2,E3,A3,5,6,7,8,1,2,3,4,
{8}15,,,84,84,7,65,4h[4:1],,6,6-8[32:3],,2-4[32:3],,1,,
6h[8:2],5,4h[4:1],5,6h[4:1],5,4,3,2,E8/B7,B1/E2,B3/E4,B5/E6,C,E3/E7,,
1/8-5[8:1],,3,3,4-6[32:3]/2,5,1-3[32:3],2,
7,7,84,{24}E8,E7,E6,{8}E5,,42,{16}1,5,
{8}1-4[8:1],,6,6,7/5-3[32:3],4,8-6[32:3],7,
1,{24}E2,E3,E4,{8}E5,6,7<4[8:1]/5-1[8:1],,,,
2xV48[4:1]/3x,,5,5,6h[4:1],,{16}1,2,3,4,
{8}6xV48[4:1]/5x,,3,3,2h[4:1],,{16}7,6,5,4,
2,3,2,3,2,3,2,3,2,4,2,4,2,4,2,4,
{32}1,2,3,4,5,6,7,8,1,2,3,4,5,6,7,8,1,2,3,4,5,6,7,8,1,2,3,4,5,6,7,8,
{4}5x-8[4:7]/1xb,,,,,,,,4xh[4:3],,,,E5,,C,,
4x-1[4:7],,,,,,,,5xh[4:3],,,,4qq4[8:4]/5-8[8:4],,,,
6-4[8:1]/2,3-1[8:1],8-4[8:1]*-6[8:1],8x,
3-5[8:1]/7,6-8[8:1],1-5[8:1]*-3[8:1],1x,
2-6[8:1]/6,4<7[8:1],1-4[8:1]*-6[8:1],1x,
7-3[8:1]/3,5>2[8:1],8-5[8:1]*-3[8:1],8x,
2-5[8:1]/4-8[8:1],2x/4x,1>4[8:1]*<6[8:1],1x,
7-4[8:1]/5-1[8:1],7x/5x,8<5[8:1]*>3[8:1],8x,
2-5[8:1]/6-1[8:1],2x/6x,7-4[8:1]/3-8[8:1],7x/3x,
1w5[8:1],1x,8w4[8:1],8x,
{8}2x-6[8:1],2,1x-5[8:1],1,8x-4[8:1],8,7x-3[8:1],7,
6x-2[8:1],6,5x-1[8:1],5,4x-8[8:1],4,3x,3,
{16}2,1,2,1,3,1,3,1,4h[256:1],5,6h[256:1],7,8h[256:1],1,2h[256:1],3,
{4}4xb/Cf,,,,
8-4[4:5],,,,,,,,8-4[4:5]*-4[4:5],,,,,,,,
8x<5[8:1]/5x<8b[8:1],`E8/E6`E7f,1x>4[8:1]/4x>1b[8:1],`E2/E4`E3f,
7x-4[8:1]/3x-8b[8:1],`E8/E4`Cf,2x-5[8:1]/6x-1b[8:1],`E2/E6`Cf,
{16}84,,2,1,3,,7,8,6,,3,4,3,,6,5,
{8}6,78,18,12,{32}3,4,5,6,7,8,1,2,37,6,5,4,3,2,1,8,
{8}7b/Cf,,2b-4[32:3]/8x,2,2x/6b-8[32:3],6,1b-5[8:1]/6x,1,
1x/7b-3[8:1],7,2b-8[32:3]/7x,2,2x/6b-4[32:3],6,6x/3b,3,
{16}2,1,2,1,4,5,4,5,8,7,8,7,3,6,3,6,
2,1,3,7,8,6,3,4,2,6,5,7,{32}3,4,5,6,7,8,1,2,
{16}3-7[8:1]/7,6,5,4,,,,,2/6v3[8:1]*-1[8:1],3,4,5,,,,,
4-8b[8:1]/8,37,26,15,,,,,{32}1w5[8:1],2,3,4,5,6,7,8,{4}`Cf/B7`B3,
{4}2xb/8xb,,,,,,,,C,,,,,,,,E1,,,,,,,,{32}E6,E5,E4,,
