&title=Diabolikha
&artist=葉月ゆら
&first=0
&des=Luvlily
&lv_5=13
&inote_5=(286){1},
{8}7h[4:5]/3h[4:5],,,,,,,,
{8},,,,
{12}5,4,6,3,7,,
{8}2h[4:3]/8h[4:3],,,,,,,,
{12}21,38,47,
{8}5/6,,26,26,,,
{8}2h[4:5]/6h[4:5],,,,,,,,
{8},,,,
{12}4,5,3,6,2,,
{8}7h[4:3]/1h[4:3],,,,,,,,
{12}78,61,52,
{8}4/3,,
{12}6,2,7,4,,,
{8}8b,5,6,5,7,5,6,5,
{8}7,4,6,4,7,4,6,4,
{8}8,4,7,4,8,4,7,4,
{8}8,3,7,3,6,3,5,3,
{8}5,2,5,1,5,8,5,1,
{8}4,1,5,1,6,1,7,1,
{8}8,2,7,3,6,4,5,2,
{8}8,1,
{12}8,7,6,
{8}5,3h[8:1]/2h[8:1],,,
{8}1b,4,3,4,2,4,3,4,
{8}2,5,3,5,2,5,3,5,
{8}1,5,8,5,1,5,8,5,
{8}1,6,2,7,3,8,4,1,
{8}4,8,4,7,4,6,4,5,
{8}5,3,5,2,5,1,5,8,
{8}6,1,7,2,8,3,1,4,
{12}1,8,7,6,5,4,3,2,1,8,7,6,
{8}51,,34,,2,2,1,,
{8}78,,56,,7,7,8,,
{8}12,,34,,6,6,5,,
{8}34,,71,,6,6,8,,
{8}2,1,2,1,
{8}2,,3,3,
{8}4,,12,1h[4:1]/2h[4:1],,,3h[8:1]/4h[8:1],,
{8}45,,78,8h[4:1]/7h[4:1],,,18,,
{8}2,8,3,7,4,6,3,5,
{8}45,,61,,7,8,7,1,
{8}18,,35,,4,5,4,6,
{8}56,,17,,8,1,8,2,
{8}12,,35,,4,5,4,7,
{8}1,8,2,7,3,6,4,5,
{8}8,7,1,6,2,5,3,4,
{8}1-5[8:1],,6-2[8:1],,3-7[8:1],,8-4[8:1],,
{8}2<6[4:1],,,5p1[16:3]*pp7[16:3],,,,,
{8}2-5[16:3]/6-1[16:3],,2-7[16:3]/6-3[16:3],,,,,,
{12}3,2,1,
{8}8,5,1,6,2,7,
{8}7-4[16:3]/3-8[16:3],,7-2[16:3]/3-6[16:3],,,,,,
{12}6,7,8,
{8}1,4,8,3,7,2,
{8}16,,37,,4,8,3,6,
{8}25,,37,,1,5,2,7,
{8}38,,26,,8,2,7,3,
{8}45,,37,,1,8,2,6,
{8}4,5,4,5,4,,2,2,
{8}1,,68,6h[8:1]/8h[8:1],,57,5h[8:1]/7h[8:1],,
{8}4,6,4,6,4,,2,2,
{8}3,,18,1h[8:1]/8h[8:1],,67,7h[8:1]/6h[8:1],,
{8}56,,28,,45,,26,,
{8}45,,3,4,,4,2,,
{8}18,,6,5,,5,7,,
{8}1,8,2-6[16:3],1,2,,,,
{8}4bV27[4:18]/8b,,1,,1h[8:1],,,,
{8}8,,8,,8h[8:1],,,,
{8}6,,6,,6h[8:1],,,,
{8}5,,5,,5h[8:1],,,,
{8}4,,4,,4h[8:1],,,,
{8}1,,1h[8:3],,,3,,,
{8}1h[8:3],,,6,,,1h[4:1],,
{8}8h[8:4],,,,6h[2:1],,,,
{8}5bV72[4:18],,8,,8h[8:1],,,,
{8}1,,1,,1h[8:1],,,,
{8}3,,3,,3h[8:1],,,,
{8}4,,4,,4h[8:1],,,,
{8}5,,5,,5h[8:1],,,,
{8}8h[8:3],,,6h[8:3],,,8h[4:1],,
{8}1h[8:3],,,3h[8:3],,,1h[4:1],,
{8}2h[2:1],,,,4b,,,,
{8}5,4,6,3,5,4,7,2,
{8}5,3,7,1,
{12}6,7,8,14,3,2,
{8}1b-5[16:3]/8b,,6V84[8:3],6,,2,2,,
{8}3-7[16:3],,8V62[8:3],8,,1,1,,
{8}1-5[16:3],,6V48[8:3],6,,2,2,,
{8}4h[4:1],,8-4[16:3],8,,1,,1,
{8}7,2,6,3,5,4,4,8,
{8}2,7,3,6,4,5,5,2,
{8}7-4[8:1],,3-7[8:1],,6-2[8:1],,3-8[8:1],,
{8}5-1[8:1],,2b,2b,,,
{12}6,7,8,
{8}2-6[16:3]/1,,5V73[8:3],5,,1,1,,
{8}4-8[16:3],,7V15[8:3],7,,2,2,,
{8}1-5[16:3],,4V62[8:3],4,,3,3,,
{8}5h[4:1],,1-5[16:3],1,,2,,2,
{8}6,3,7,4,8,2,6,4,
{8}8,3,7,2,6,1,5,3,
{8}74,,6,25,,1,8,1,
{8}7,5,6,4,5,3,4,2,
{8}8-5[16:3],,3V51[8:3],3,,6,6,,
{8}7-2[16:3],,4V26[8:3],4,,1,1,,
{8}5-8[16:3],,3V15[8:3],3,,7,7,,
{8}8-3[16:3],,5V37[8:3],5,,6,6,,
{8}5,3,6,2,5,3,7,1,
{8}18,,,67,,,23,,
{12}6,7,8,12,,,
{8}3,4,2,4,
{8}3,,45,45,,,18,,
{8}2qq6[4:11]/7pp3[4:11],,,,,,,,
{8},,,,,,,
{8},,,,,,,,
{8},,,,,
{6}18,18,27,
{8}3q7[8:3]/6p2[8:3],,,,,,,,
{8}2p4[2:1]/7q5[2:1],,,,,,,,
{8}4p2[4:5]/5q7[4:5],,,,,,,,
{8},,,,,,,,
{8}3pp7[4:11]/6qq2[4:11],,,,,,,,
{8},,,,,,,
{8},,,,,,,,
{8},,,,,
{6}45,45,36,
{8}2v5[8:3]/7v4[8:3],,,,,,,,
{8}5q1[8:3]/4p8[8:3],,,,,,,,
{8}1q4[4:5]/8p5[4:5],,,,,,,,
{8},,,,,,,,
{8}45,,56,,78,,18,,
{8}45,,34,,12,,1b/8b,,
{8}1,4,3,4,1,4,3,4,
{8}8,5,4,5,8,5,4,5,
{8}4,7,2,7,4,7,2,7,
{8}3,8,3,4,3,8,3,4,
{8}2,1,2,6,2,1,2,6,
{8}2,1,2,4,2,1,2,4,
{8}2,1,2,8,2,7,2,6,
{8}3,6,4,6,5,6,7,6,
{8}8,5,4,5,8,5,4,5,
{8}8,5,8,7,8,5,8,7,
{8}1,5,4,5,1,5,4,5,
{8}1,5,1,8,1,5,1,8,
{8}3,4,8,7,3,4,8,7,
{8}5,6,2,1,5,6,2,1,
{8}3b/8b,,4,1b/5b,,38,3b/8b,,
{8}1b/8b,,6,1b/5b,,37,3b/7b,,
{8}3b/4b,,,1b/8b,,,7b/6b,,
{8}5bw1[4:1]/6b,,,,,,
{12},2,1,
{8}3bv1[8:3]/8b-4[8:3],,,,,,,,
{8}2q6[8:3]/6pp8[8:3],,,,,,,,
{8}1V73[2:1]/7V15[2:1],,,,,,,,
{8}46,,34,34,,67,,12,
{8}1/2q8[4:1],,5V73[8:3],5,,1,1,,
{8}4p6[4:1],,1V37[8:3],1,,5,5,,
{8}4-1[8:1],,8-4[8:1],,2-6[8:1],,5q1[8:1],,
{8}4>6[4:1],,5b,5b,,,
{12}3,2,1,
{8}7p1[4:1]/8,,4V26[8:3],4,,8,8,,
{8}7q5[4:1],,2V84[8:3],2,,6,6,,
{8}8-4[16:3],,5>7[8:3],5,,6,6,,
{8}5h[4:1],,8-4[16:3],8,,7,,7,
{12}2,6,2,6,1,5,1,5,8,4,8,4,
{12}2,6,2,6,3,7,3,7,4,8,4,8,
{8}5h[4:1],,6,74,,8,1,8,
{12}2,4,3,5,4,6,5,7,1,8,2,7,
{8}1v4[16:3],,6V48[8:3],6,,3,3,,
{8}2v7[16:3],,5V73[8:3],5,,1,1,,
{8}4v1[16:3],,6V84[8:3],6,,2,2,,
{8}1v6[16:3],,4V62[8:3],4,,3,3,,
{8}4,6,3,7,4,6,2,8,
{8}81,,,23,,,67,,
{12}3,2,1,87,,,
{8}6,5,7,5,
{8}6,,54,54,,,81,,
{12}3,5,3,5,3,5,3,5,3,5,3,5,
{12}2,6,2,6,2,6,2,6,2,6,2,6,
{12}1,7,1,7,1,7,1,7,1,7,1,7,
{8}8b,,6,5b/7b,,3,2b/4b,,
{12}7,8,6,1,5,2,4,3,4,3,4,3,
{12}1,2,8,3,7,4,6,5,6,5,6,5,
{12}7b,,,1b/8b,,,3b/4b,,,5b/7b,,,
{8}7,8,5,4,8,1,4,3,
{12}6,4,6,4,6,4,6,4,6,4,6,4,
{12}7,3,7,3,7,3,7,3,7,3,7,3,
{12}8,2,8,2,8,2,8,2,8,2,8,2,
{8}1b,,3,4b/2b,,6,7b/5b,,
{12}2,1,3,8,4,7,5,6,5,6,5,6,
{12}8,7,1,6,2,5,3,4,3,4,3,4,
{8}2b,,78,6b/1b,,56,4b/7b,,
{8}1b/8b,2,3,4,5,6,7,8,
{8}1b/2b,,36,5b/8b,,27,1bq2[2:1]/4b<2[2:1],,
{12},,,,,,,,,7,5,4,
{1}2b,E
&inote_6=
