&title=216ばんどうろ(昼)
&artist=一之瀬剛
&first=-2.25
&des=Dororo
&lv_5=12+
&inote_5=(92)
{1},
{16}
3^6[4:1],,,,,,,,7,,7,,,,,,
4^7[4:1],,,,,,,,8,,8,,17,,26,,
3^6[4:1],,,,,,,,7,,7,,,,,,
4^7[4:1],,,,,,,,1,,1,,28,,37,,
6^3[4:1],,,,,,,,2,,2,,,,,,
5^2[4:1],,,,,,,,1,,1,,28,,37,,
6^3[4:1],,,,,,,,2,,2,,,,,,
5^2[4:1],,,,,,,,8,,8,,17,,26,,
3^6[4:1]/5h[4:1],,,,,,,,7,,7,,,,{32},1,2,3,
{16}4^7[4:1]/6h[4:1],,,,,,,,8,,8,,17,,68,,
5^8[4:1]/7h[4:1],,,,,,,,1,,1,,,,{32},3,4,5,
{16}6^1[4:1]/8h[4:1],,,,,,,,3,,3,,24,,35,,
6^3[4:1]/4h[4:1],,,,,,,,2,,2,,,,{32},8,7,6,
{16}5^2[4:1]/3h[4:1],,,,,,,,1,,1,,28,,13,,
4^1[4:1]/2h[4:1],,,,,,,,8,,8,,,,{32},6,5,4,
{16}3^8[4:1]/1h[4:1],,,,,,,,6,,6,,57,,46,,
1b/2b,,{24}6,5,6,{16}4,,{24}3,4,3,{16}5,,{24}8,1,8,2,,2,7,,7,
{24}
5,,5,6^1[8:1],4,6,5,,,2,3,4,5,,5,7,,,78,,8,1,,1,
3-1[12:1],,4-7[12:1],5,,5,3,,4,,,1,8,,8,2,,2,6,,6,4,,4,
5,,5,4^1[8:1],6,4,5,,,8,7,6,5,,5,3,,3,7,,7,1,,1,
28,,,56,,47,,,3,4,,5,4,,68,,,2,1,,8,1,,2,
4,,4,3^8[8:1],5,3,4,,,7,6,5,4,,4,2,,,12,,1,8,,8,
6-8[12:1],,5-2[12:1],4,,4,6,,5,,,8,1,,1,7,,7,3,,3,5,,5,
4,,4,5^8[8:1],3,5,4,,,1,2,3,4,,4,6,,6,2,,2,8,,8,
17,,,34,,25,,,6,5,,4,5,,13,,,7,8,,1,8,,7,
5-7[12:1],,,6h[4:1],,,5,,,,,1,8-4[12:1],,8,1-6[12:1],,,8,,,1,,,
5-3[12:1],,,6h[4:1],,,5,,,,,2,1,,1,2h[8:1],,,8,,8,1h[8:1],,,
4-2[12:1],,,3h[4:1],,,4,,,,,8,1-5[12:1],,1,8^3[12:1],,,1,,,8,,,
4-6[12:1],,,3h[4:1],,,4,,,,,7,8,,8,7h[8:1],,,3,4,2,6,5,7,
1-4[16:1],,1,8,,8,1-6[16:1],,1,2,,2,1-5[16:1],,1,8,,8,1,,,,,,
8-5[16:1],,8,1,,1,8-3[16:1],,8,7,,7,8-4[16:1],,8,1,,1,8,,,,,,
2-4[16:1],,2,1,,1,2-6[16:1],,2,3,,3,2-5[16:1],,2,1,,1,2,,,,,,
5^8[16:1],,5,3,,3,5^2[16:1],,5,7,,7,5,,5,3,,3,7,8,6,2,1,3,
5^8[16:1],,,1v6[16:1]*-5[16:1]/7,,,53,,2,1,,,47,,2,2V83[8:1],,2,6,,6,2,,4,
4-8[16:1],,,6-4[16:1]/1p5[16:1],,,4,,7,16,,,3/7-3[16:1],,,12,,,57,,4,4,,2-4[16:1],
8,,8-6[16:1],1,,1-5[16:1]/2,,,8,,,1,,,7,3-7[16:1]/7-4[16:1],,,56,,,37,,,
1p5[16:1],,2^7[16:1],2,,,1,,2,,,,4/6-2[16:1],,3-8[16:1],3,,,6,,3,,,4,
4^1[16:1],,,8v3[16:1]*q4[16:1]/2,,,46,,7,8,,,25,,7,7pp8[8:1],,7,3,,3,7,,5,
5-1[16:1],,,3-5[16:1]/8V64[16:1],,,5,,2,38,,,6/2-6[16:1],,,78,,,24,,5,5,,7-5[16:1],
1,,1-3[16:1],8,,8-4[16:1]/7,,,1,,,8,,,2,6-8[16:1]/2v5[16:1],,,34,,,26,,,
4,,3q7[16:1]/5-8[16:1],,,78,,,3^6[16:1]/5,,,,12,,38,,,,7,5,6,2,4,3,
6b-2[1:1]*-1[1:1],,,,,,,,,,,,,,,,,,,,,,,,
,,,,,,,,,,,,,,,,,,,,,,,,
E
