&title=Destination
&artist=Nhato
&first=-3.26
&lv_5=13+
&des_5=FDShijing
&inote_5=
(133){4},,,,,,,,{8}3,
5,4,6,{2}2h[2:1],
8h[2:1],1h[2:1],
6h[2:1],{8}4h[8:1],{4},{8}8/2h[8:1],
{4},6/4h[8:1],{8},8/2h[8:1],{4},{2}Cf/E1/E7/B5/B4/E3,
{8}2x/8x,2x/8x,3,{16}3,4,
,4,{8}3,{16}3,5,,5,{8}4,{16}4,6,,6,{8}5,
{16}5,6,,6,{8}4,{16}4,6,{8}3x/7x,3x/7x,6,{16}6,5,
,5,{8}6,{16}6,4,,4,{8}5,{16}5,3,,3,{8}4,
{16}4,3,,3,{8}5,{16}5,3,{8}6x/2x,2x/6x,5/3,{16}4,5,
3,5,{8}4,4/6,{16}5,4,6,4,{8}5,3/5,{16}4,5,
3,6,{8}4,2/7,{16}3,6,4x,5x,4x,5x,3,4,3,4,
2,5,2,5,1,6,1,6,{8}8-6[8:1],2/6-2[8:1],{4}8/1,
{16}4,{8},{16}6,{8}4,{16}3,5,{4}2x-6[16:1]/6x-2[16:1],Cf/B6/B2,
{8}4,5,{16}4,6h[8:1],{8},{16}4/7h[8:1],{8},{16}6h[8:1],{8}4,5h[8:1],
{16}4,6h[8:1],{8},4-8[8:1],8-4[8:1],{4}4,{16}6,{8},{16}3h[8:1],
{8}6,2h[8:1],{16}6,3h[8:1],{8},{16}6/4h[8:1],{8},{16}3h[8:1],{8}6,2h[8:1],
{16}6,3h[8:1],{8},6-2[8:1],2-6[8:1],{4}6,{16}4,{8},{16}6h[8:1],
{8}4,5h[8:1],{16}4,6h[8:1],{8},{16}4/7h[8:1],{8},{16}6h[8:1],{8}4,5h[8:1],
{16}4,6h[8:1],{8},4v7[8:1],2,{4}4/7V52[8:1],7/2V47[8:1],
2/7-1[8:1],7-4[8:1]/2-6[8:1],2/7,{16}5,4,6,3,
5,5,5,2,5,5,5,1,{8}5-1[8:1],4,{16}3/5-7[8:1],{8},{16}4,
{8}5-1[8:1],3,{16}5-7[8:1],4,{8},{16}3/5-1[8:1],{8},{16}4,{8}5-7[8:1],3,
{16}5,4,{8},5/2,3,4-2[8:1],5,{16}6/4-8[8:1],{8},{16}5,
{8}4-2[8:1],6,{16}4-8[8:1],5,{8},{16}6/4-2[8:1],{8},{16}5,{8}4-8[8:1],6,
{16}4,5,{8},5/2,4,3-5[8:1],2,{16}6/3-1[8:1],{8},{16}7,
{8}3-5[8:1],6,{16}3-1[8:1],7,{8},{16}6/3-5[8:1],{8},{16}7,{8}3-1[8:1],6,
{16}3,7,{8},3p7[8:1],5/2,{4}3/7v4[8:1],7/4-2-6[8:1],
4/8-4[8:1],8/5,{32}E5,E4,E3,E2,E1,E8,E7,E6,{16}5x,4,5x,4,
6x,5,7x,4,8x,3,1x,2,3bx/8bx-4[8:1],{8},{16}2,{8}8,3,
{16}5<8[8:1],4,,3,{8}5,2,{16}6/1-5[8:1],{8},{16}7,{8}1,6,
{16}4>1[8:1],5,,6,{8}4,7,{16}8h[8:1]/6V84[4:1],{8},{16}1,{8}6,2h[8:1],
,1,{16}8h[8:1]/6V84[4:1],{8},{16}1,{8}6,2h[8:1],,1,
{16}8,7,4,5,2,1,4,5,6x/3-1[8:1],{8},{16}5,{8}3,6,
{16}7<4[8:1],8,,1,{8}7,2,{16}6/3-1[8:1],{8},{16}5,{8}3,6,
{16}7<4[8:1],8,,1,{8}7,2h[16:1],4x/6x-1[8:1],1/2-5[8:1],6/4,2,
7,2/8-5[8:1],6/5>8[4:1],8,{2}2h[4:1],
{16}7,8,{8}7,6/1,5/2,{16}3b/4b-7[8:1],{8},{16}2,{8}4,1,
{16}8-5[8:1],2,,3,{8}8,4,{16}6/5-2[8:1],{8},{16}7,{8}5,8,
{16}1-4[8:1],7,,6,{8}1,5,{16}6h[8:1]/4V26[4:1],{8},{16}7,{8}4,8h[8:1],
,7,{16}6h[8:1]/4V26[4:1],{8},{16}7,{8}4,8h[8:1],,7,
{16}4,5,8,7,4,5,2,1,2x-5[8:1],{8},{16}8,{8}2,7,
{16}4-8[8:1],5,,5,{8}4,6,{16}7-4[8:1],{8},{16}1,{8}7,2,
{16}5-1[8:1],4,,4,{8}5,2h[16:1],{16}1,2,8,3,6,5,7,4,
8,3,8,3,6,1,6,1,{8}6-8[8:1],2/8-4[8:1],{4}6/5,
{16}3,5,2,6,3,7,2,8,{2}1b-5b[0.2256##0.2256],
{8},,,,,,,,,2,
1,8,{4}7h[8:1],{8}7,6h[4:1],
{4},{8}6,5h[8:1],,{16}5,6,{8}7,7h[4:1],
{4},{8}5,7h[4:1],{4},{8}5,7h[4:1],
{4},{8}5,7h[8:1],,7,6,5h[8:1],
,4,3,2,{4}1h[8:1],{8}1,2h[4:1],
{4},{8}2,3h[8:1],,{16}3,2,{8}1,1h[4:1],
{4},{8}7,1h[4:1],{4},{8}6,1h[4:1],
{4},{8}5,1h[4:1],{4},{8}4,6,
2,7/1,8w4[8:1],1/7,{32}8bx,B8,Cf,B4/B5/B3,{8},3/5,6h[4:1],
{4}3,{8}3/6,7,3/8,{16}2,1,{8}2,3/8,
{4}4/7h[8:1],{8}8/7-4[8:1],6/1h[4:1],{4},{8}1/2-5[8:1],3/8h[4:1],
{4},{8}8/7-4[8:1],6/1h[4:1],{4},{8}2,3,
7,8/2,1w5[8:1],2/8,{32}1x,B1,Cf,B5/B6/B4,{8},6/4,3h[4:1],
{4}6,{8}6/3,2,1/6,{16}7,8,{8}7,1/6,
{4}5/2h[8:1],{8}2/8-4[8:1],1/7h[4:1],{4},{8}7/1-5[8:1],8/2h[4:1],
{4},{8}2/6,5h[8:1]/4V25[4:1],,5V38[16:3],6,{16}7,7,
{8},7,6-2[8:1]/4-8[8:1],5,{32}4b/6b,B6/B4,Cf,B8/B2,{8},{4}2/8,
2/7,2/6,7/1,7/2,
7/3,{8}7/4,{24}4,3,2,{4}1x/5b,2/6,
3/7,4/8,3/5,2/6,
{8}1/7,{24}7,6,5,{8}1b/4,{24}2,3,4,{8}6b/5x<8[8:1],4,5/3,2,
1/8>3[8:1],7,8/6,5,4/3<6[8:1],2,3/1,8,
6/7<4[12:1],8,7/1,2,{16}3,4,2,5,3,6,2,5,
4,7,3,6,5,7,1,8,{32}1b,2,3,4,5,6,7,8,1b,2,3,4,5,6,7,8,
{8}1/5,6,7,8,{2}1h[4:1],
3h[16:3]/7h[8:3],{16}6/4h[8:3],{8},{16}6,{8},6,
{16}4,5,3,4,2,6,5,7,1b<6[8:1],{8},{16}2,{8}1,3,
2/8V62[8:1],1,8/3,4V26[8:1],5,6/4,7,8,
1/7V53[8:1],5/3V17[8:1],{4}7,{8}4-7[8:1],7-3[8:1],4/8,1,
8-5[8:1],5-1[8:1],8/4,3,2-7[8:1],7-3[8:1],2/6,5,
6-1[8:1],1-5[8:1],6/2,3h[16:1],4-1[8:1],5/2-6[8:1],4,2x,
8-4[8:1],7,8/6,5,{2}2h[4:1]/4x-1-3-7[0.1128##0.5639],
{16}4,5,{8}3h[8:1],{16}5,2,6,1,{8}8x/7b>2b[8:1],{16}6,5,{8}7,4,
8/3<6b[8:1],{16}2,1,{8}3,8,1/7-4b[8:1],{16}6,5,{8}7,2,
5/3-8b[8:1],{16}2,1,{8}3,5,{16}6/2>5[8:1],{8},{16}1,{8}2,7,
8-4[8:1],1,8/2-6[8:1],1,2/7-4[8:1],8,7/3-8[8:1],8-4[8:1],
4V26[4:1],5,6,7,{16}8h[8:3],{8},{16}1,{8},1,
{16}7h[2:1],1,{8},1,2,{16}3h[2:1],{8},{16}8,{8},{24}B8,C,B4,
{4}4xh[2:1],{8}3,2,B7/B6,B3/E4,E6/B5,B1/E2,
{24}B8,C,B4,B2/E3,{12},{8}B6/E7,B8/B4,{2}Cfh[1:1],
E
