&title=一事无成
&artist=周柏豪 郑融
&first=0.22
&des=9h,
&lv_5=13
&inote_5=(101)
{1},
{16}4h[8:1],,,,B5,,B4,,5h[8:1],,,,B4,,B5,,
3h[8:1],,,,B5,,B4,,3,,3,,45,,36,,
2h[8:1],,,,B5,,B4,,7h[8:1],,,,B4,,B5,,
1h[8:1],,,,B5,,B4,,3,,3,,4-2[12:1]/6,,5/7V51[4:1],,
8,,,,2,,3,,4h[8:1]/6h[8:1],,,,3-1[12:1],,5,,
6V48[4:1],,,,2<3[4:2],,3,,,,,,,,,,
7h[4:2],,5,,4,,3,,2-5[8:1],,1,,8-3[8:1],,7,,
6-1-4[4:1],,5,2xh[16:3],,,,,1x-4[8:1]*-6[8:1],,8,,1,,,,
35,,6,5,6,,4,,6-4[12:1]/5,,7,,3v6[8:1],,2,5xh[16:3],
,,,,26,,4,,7-5[12:1]/5,,8,,4v7[8:1],,3,,
2,,,,18,,3,,5-8[8:1]/4,,6,,2-5[8:1],,3,,
7-2[8:1],,8,,3-6q5[4:1],,4,,8h[4:1],,,,,,,,
46,,3,4,3,,5,,3-5[12:1]/4,,2,1,3v8[8:1],,6,,
7,,,,26,,5,,4-6[12:1]/3,,2,,1v4[8:1],,8,,
7,,,,81,,6,,4-1[8:1]/5,,3,,7-4[8:1]*-3[8:1],,6,,
7,,,,25,,47,,16,,38,,1>4[8:1]/5<8[8:1],,37,,
1bp5[8:1]/5b,,,,1-4[8:1]/3,,4-7[8:1],,1-5[8:1]/3x,,2x,,1x>4[8:1],,7,,
8q4[8:1]/1,,,,8-5[8:1]/7,,5-2[8:1],,8-4[8:1]/6x,,7x,,8x<5[8:1],,2,,
3>8[8:1]/8,,,,3<6[8:1]/7,,6>8[4:1],,3x-7[8:1],,7x-3[8:1],,,,,,
1-5[8:1],,,,6-2[8:1],,,,1v6b[8:1]*v4b[8:1],,,,1x,,,,
2>5[8:1]/6<1[8:1],,,,2-7[8:1]/6-3[8:1],,,,6<4[4:1],,,,C,,5x,,
7-5[12:1],,3-1[12:1],,7-4[8:1],,3-8[8:1],,7-3[8:1],,3x-6[8:1],,,,,,
2h[4:1],,4,,5qq1[4:2],,7,7h[16:3],,,,,6,,6,,
5-2[8:1],,6,,7p4[8:3],,8,1xh[16:3],,,,,2,,3,,
4>7>4[8:5]/5x,,6,,7xh[8:1],,,,6x,,5,,7xh[8:1],,,,
5<2<5[8:5]/4x,,3,,2xh[8:1],,,,E1,,E2,,E3,,E4,,
4>7>4[8:5]/5x,,6,,7xh[8:1],,,,6x,,5,,7xh[8:1],,,,
5<2<5[8:5]/4x,,3,,2xh[8:1],,,,Ch[4:1],,,,,,,,
1xw5[4:2],,,,,,,,,,,,,,,,
46,,2,1,4-1[8:1],,3,,8>3[8:1],,7,,6-1[8:1],,5,,
4,,,,2q6[8:1]/4,,1,,8p4[8:1],,7,,2q5[8:2],,3,,
6h[4:1],,,,,,7,,4qq5[4:1],,5,,6,,7,,
8qq1[4:1],,1,,2,,3,,4w8[8:1],,3,5,,,,,
3<6[8:1]/7,,2,1,3x,,C,,8qq8[4:1],,B6/B7,,8>6[8:3],,3,3xh[16:3],
,,,,2x,,1x,,2h[8:1],,A6/B6,,3h[8:1],,A7/B7,,
4-1-3[4:1]/5x,,,,6,,7,,8-6-3-1-5[4:2],,1,,2,,3,,
4xh[4:1],,,,,,27,,1xb-5[8:1]/6xb,,3bx/8bx-4b[8:1],,1b,,8b,,
1x,,3,4,1-4[8:1],,2,,5-2[8:1],,7-5[12:1],,5-8[8:1],,7,,
1-5[8:1],,2-4[12:1],,1w5[8:1],,2,,1,,,,3x/7x,,,,
2/4p7[8:1],,35,,4/6hx[8:1],,,,7/5q2[8:1],,64,,5/3hx[8:1],,,,
4-2[12:1],,8-4[8:1],,4pp2[8:3],,8,,1,,3,3xh[16:3],,,,,
2>5[8:1]/6<1[8:1],,,,2p6[8:1]/6p2[8:1],,,,2<3[4:1],,,,C,,5x,,
7x-5[12:1],,8,1,7-4[8:1],,4-8[8:1],,2V41[4:1],,1,,,,,,
6h[4:1],,5,,4pp8[4:2],,2,2h[16:3],,,,,3,,2b,,
1b-3[12:1],,1b-7[12:1],,1b-4[12:1],,1b-6[12:1],,1bw5b[8:1],,1xb,,1xb,,,,
3h[8:1],,6,4,5h[8:1],,B5,,3xqq4[4:1],,5,5h[16:3],,,,,
6,5,7,4,6h[8:1],,B6,,2xqq5[4:1],,7,7h[16:3],,,,,
6h[4:1],,E5,,3h[4:1],,E5,,6xpp5[4:1],,4,4h[16:3],,,,,
4x-2[12:1],,4x-6[12:1],,4x-1[8:1],,4x-7[8:1],,4xw8b[8:1],,,,,,,,
4x/5x,,28,,35,,17,,4x/5x,,27,,46,,18,,
4x/5x,,28,,35,,17,,4x/5x,,27,,46,,18,,
3x<8[8:3]/6x>1[8:3],,1x/8x,,3x/6x,,,,,,,,34,,5,,
3,4,1,8,3h[8:1],,5,4h[8:1],,8,2,6,5x/7x,,,,
1h[4:1]/2,,3,,4h[8:1],,5,4qq4[16:4],,6,,8x,8x,,,,
6,5,8,1,6h[8:1],,4,5h[8:1],,1,7,3,4x/2x,,,,
8h[4:1]/7,,6,,5h[8:1],,3,6h[8:1],,1,8-4[12:1],2,7,,,,
Cf/B7/B2/B3/B6,,,,,,,,,,,,E5,,,,
3xh[4:4],,,,4h[8:1],,,,5h[8:1],,,,6h[8:1],,,,
6xh[4:4],,,,5h[8:1],,,,4h[8:1],,,,3h[8:1],,,,
2xh[4:4],,,,1h[8:1],,,,7h[8:1],,,,5h[8:1],,,,
7xh[8:1],,,,5h[8:1]/6h[8:1],,,,4h[8:1]/5h[8:1],,,,3h[8:1]/4h[8:1],,,,
72,,6,5,6,,4,,5-3[12:1]/2,,6,4,5-8[8:1],,2,,
1-4[8:1],,,,6,,5,,4-6[12:1]/3,,2,,1-4[8:1],,8,,
7,,,,7-4[8:1],,6,,2-5[8:1],,1,,8-3[8:1],,7,,
6-1[8:1],,,,4,,4,,35,,26,,8<5[8:1]/4>1[8:1],,62,,
8b-3[8:1]/4b,,,,8q5[8:1]/6,,5>2[8:1],,8p3[8:1]/6x,,7x,,8x<5[8:1],,2,,
1-6[8:1],,,,1p4[8:1]/2,,4<7[8:1],,1q6[8:1]/3x,,2x,,1x>4[8:1],,7,,
6<1[8:1]/1,,,,6>3[8:1]/2,,3<1[4:1],,6xq2[8:1],,2xq6[8:1],,,,,,
8x<5[8:1],,,,3>8[8:1],,,,4w8b[8:1],,,,4x,,,,
7<4[8:1]/3>8[8:1],,,,7-2[8:1]/3-6[8:1],,,,3>5[4:1],,,,C,,4x,,
2-4[12:1],,6-8[12:1],,2-5[8:1],,6-1[8:1],,2-6[8:1],,6x-3[8:1],,,,,,
7h[4:1],,5,,4pp7[8:3],,2,1h[16:3],,,,,2,,3,,
4-7[8:1]/5,,3,,2qq6[8:3]/4,,3x,5xh[16:3],,,,,7x,,8x,,
1h[8:1],,,,B5,,B4,,5h[8:1],,,,B4,,B5,,
3h[8:1],,,,B5,,B4,,E2,,E3,,E4/E6,,E7/E5,,
2xh[8:1]/E8,,,,E6,,E4,,7h[8:1]/E2,,,,B4,,B5,,
3h[8:1],,,,B5,,B4,,5x-8[8:1],,6,4,5p2[4:3],,C,,
,,,,,,,,,,,,,,,,
,,,,,,,,,,,,,,,,
,,,,,,,,,,,,,,,,
&inote_6=
