&title=キネティックタウン
&artist=晴いちばん
&first=-0.11
&des=Celly
&lv_1=13
&lv_5=13
&inote_1=(128)
{4}
,
{4}
6-4[8:1],4,3-1[8:1],7,8-6[8:1],2,1-5[8:1],5,
7-1[8:1],3,2-4[8:1],6,8-6[8:1],3,
{8}
1s5[8:2],B4,B6,,
{16}
8b,,1,7h[16:3],2,,3h[16:2],,4<7[8:1],2h[16:3],,,4,,1,,
2h[8:1],,8,3h[16:3],7,,6h[8:1],,5-2[8:1]*-8[8:1],7,,,5,,,,
17,,8,2h[16:3],7,,6h[16:2],,5>2[8:1],7h[16:3],,,5,,8,,
7h[8:1],,1,6h[16:3],,,3h[8:1],,4-6-1[16:3],2,,,4,,3,,
4-6[12:1],,,,8-3-7[8:2],,,,,,2,,2h[8:2],,,,
5-3[12:1],,,,1-6-2[8:2],,,,,,7,,7h[8:2],,,,
8-2[12:1],,,,6-3-7[8:2],,,,,,2,,2h[8:2],,,,
1-7[12:1],,,,3-6-2[8:2],,,,,,7,,7,,8,,
1-7[12:1],,,,4-2-6[8:2],,,,,,5,,5,,4,,
4-6[12:1],,,,1V37[8:2],,,,,,8,,8,,1,,
1-7[12:1],,,,3-5-1[8:2],,,,,,8,,7,,6,,6-3[8:1],,,,1-6[8:1],,,,4-8[8:1],,,,2,,,,
1/7h[8:2],,2,,3,,4v6>2[8:2]/6,4,,,1,,8,,7,,6/1h[8:3],,5,,4,,3-7<4[8:2],3,,,1,,2,,3,,
3-8[8:1],,,,3/5-2[8:1],,,,5/7-4[8:1],,,,17,,,,
25,,3-5[12:1],4,2h[8:1],,3-1[12:1],,,,34,,7,8x,7,,
8/2h[8:2],,7,,6,,5v3<7[8:2]/3,5,,,8,,1,,2,,3/8h[8:3],,4,,5,,6-2>5[8:2],6,,,8,,7,,6,,
6-1[8:1],,,,6/4-7[8:1],,,,4/2-5[8:1],,,,82,,,,
47,,6-4[12:1],5,7h[8:1],,6,,1,2x,8h[8:1],,3,4,2,,
E4/1h[8:2],,,,,,,,E5/2h[8:2],,,,,,,,E6/3h[8:2],,,,,,,,E7/4h[8:1],,,,
3,,2,,1h[8:4]/E8,,,,,,,,E1,,,,,,
2h[8:2]/8,,,,1,,34,,56,,7-5-8-4[16:5]/8,,,,
3-1[12:1],,4,,3b,,,,5-7[12:1],,1-5-2[8:2],,5,,1-6[8:1],,,,1,,2,,
1,2,3/8w4[8:1],,,,8,,
,,,,
4-2[12:1],,7-5[12:1],,4-8-3[8:2],,7,,4-7[8:1],,,,4-1[8:1],,
3,,4,,5,,4,5,6/2h[8:2],,,,
8,7,6,5,E2,E3,E4,E5,
8b-6-1-5[8:3],,,,4,,3,,2,,2h[8:2],,
8-3[8:1],7,6h[8:1],,8-4-7[8:
2],,7,,8,,1,2,3-1[8:1]*-7[8:1],,,,3,,,,
28,,7-4[8:1],1,6,,17,,,,3-7[8:1],4,2,,13,,1,,1s5[16:3],,,,
5,,6,,7,,8-4[8:1]/5>2[8:1],,,,85,,,
1hx[16:3],,,6h[8:1],,4-7-5[16:3],5,,,3/4,,2,,1h[8:1],,
8-3[8:1],2,,,7/8,,6-1[8:1],4,,,56,,,,
2h[8:1]/8,,1-6[8:1],3,,,41,,5-2-4[16:3],7,,,56,,7,,8h[8:1],,
1-5[8:1],7,,,13,,4-2-5[16:3],6,,,4,,7,,
1,,8,,7,,6>8[8:3],,,,E2,,E3,,E4,,
5,,4,,3,,2<4[8:3],,,,E6,,E7,,E8,,
7,,6,,5,,4>6[8:3],,,,E1,,E2,,E3,,4qq8[8:3],,,,,,8<1[8:3],,8,,,,,,,,
5,,6,,7,,8>6[8:3],,,,E5,,E4,,E3,,
8,,1,,2,,3>5[8:3],,,,E4,,E5,,E6,,
1,,8,,7,,6-4-2-8-6[8:3],,,,E5,,E4,,E3,,
1-6[8:1],,,,1/3-8[8:1],,,,5-2[8:1]/3,,,,5/7p6>6[8:10],,,,17,,,,,,,,,,,,,,,,
3,,,2,,,1pp6[8:4],,1,,,,,,,,
8h[8:3],,,,,,5,,4/7pp4[8:4],,,,,,,,4,,,3,,,2,,2h[8:4],,,,,,,,
4h[8:2],,,,3-5[12:1],,,,6-8[12:1],,,,4-2[12:1],,,,7,,6h[16:1],,,,5,,5pp1[8:4],,,,
2,,,3h[16:1],,,,,,,4,,4-2-6-1[8:4],,,,,,,,
7,,,6,,,5,,5h[8:2],,2,,3,3,4-8[8:16],,1h[8:3],,,,,,,,
2h[8:3],,,,,,,,3h[8:3],,,,,,,,4h[8:3]
,,,,,,,,
5/7h[8:7],,,,,,,,6h[325:1],,,,,,1h[8:2],,,,8,,57,,24,,
3-1-4-8[16:5]/6,,,,
7-5[12:1],,6,,7b,,,,1-3[12:1],,5-1-6[8:2],,1,,5-2[8:1],,,,5,,6,,
5,6,3/7-2[8:1]*-4[8:1],,,,7,,
,,,,
2-4[12:1],,5-7[12:1],,2-6-3[8:2],,1,,2-7[8:1],,1,,2-5[8:1],,
3,,2,,1,,8,7,2/6h[8:2],,,,
1,2,3,4,7,6,5,4,
1b-3-8-4[8:3],,,,5,,6,,7,,7h[8:2],,
1-6[8:1],2,3h[8:1],,1-5-2[8:
2],,2,,1,,8,7,6-8[8:1]*-2[8:1],,,,6,,,,
71,,2-5[8:1],8,3,,82,,,,6-2[8:1],5,7,,86,,8,,8-2-6[16:3],,,,
82,,1,,2,3,4-1[8:1]/7-5[8:1],,,,74,,,,
2/8-6[12:1],3,4-8-3[16:4],,8,,4V61[16:3],,5,,4-2[12:1],,3,,4,,
7-5-1-3[16:5],6,5h[8:1],,7,,,,,,
7,,8h[8:1],,1V74[16:3],2,3h[8:1],,1-3[12:1],,2,,1,,
1-4[8:1],8,7h[8:1],,1-6[16:2],,8,,2,,1h[16:5],,
7,6,5,4,2,3,4,5,8b-2-6-4[8:2],,,,
4,,3,,2,,2h[8:2],,8V25[16:3],7,6h[8:1],,8-4[8:1],,7,,8,,
8,1,2-4[12:1]/6-1[12:1],,,,26,,,,
57,,3-7[16:2],5,2,,1h[16:4]/3,,,,8V25[16:3],1,6,,58,,7,,
7-4[8:1],,,,17,,8,,1,2,3-1[12:1]/7-3[12:1],,,,73,,,8hx[16:3],,,
6h[16:2],,4-7-5[16:3],5,3h[8:1],,4-2[12:1],,3,,4,,
8,1x,7h[8:2],,4,,3-1[12:1]*-5[12:1],4,2,,3,,,,
3h[8:1]/8,,5-3[12:1],4,6h[8:1],,5,,
1-5-3[16:3],2x,8h[8:1],,1,,7,,25,,6,4,7-3-6-4[8:2],,4,,,3,,,2h[8:2],,,,
8,,7,5,6h[8:1],,4h[8:1],,6-2-4[16:3],5,7h[8:1],,
6-8[12:1],,7,,6,,2,1x,3h[8:2],,8,,7-3[12:1]*-5[12:1],1,6,,7,,,,
6h[8:1]/1,,4-6[12:1],5,3h[8:1],,4,,
8-4-6[16:3],7x,1h[8:1],,8,,2,,74,,3-5[12:1],5,1h[8:1],,3,,2V84[16:3],8,3h[8:1],,2,,1x,,
&inote_5=(128)
{4}
,
{4}
6-4[8:1],4,3-1[8:1],7,8-6[8:1],2,1-5[8:1],5,
7-1[8:1],3,2-4[8:1],6,8-6[8:1],3,
{8}
1s5[8:2],B4,B6,,
{16}
8b,,1,7h[16:3],2,,3h[16:2],,4<7[8:1],2h[16:3],,,4,,1,,
2h[8:1],,8,3h[16:3],7,,6h[8:1],,5-2[8:1]*-8[8:1],7,,,5,,,,
17,,8,2h[16:3],7,,6h[16:2],,5>2[8:1],7h[16:3],,,5,,8,,
7h[8:1],,1,6h[16:3],,,3h[8:1],,4-6-1[16:3],2,,,4,,3,,
4-6[12:1],,,,8-3-7[8:2],,,,,,2,,2h[8:2],,,,
5-3[12:1],,,,1-6-2[8:2],,,,,,7,,7h[8:2],,,,
8-2[12:1],,,,6-3-7[8:2],,,,,,2,,2h[8:2],,,,
1-7[12:1],,,,3-6-2[8:2],,,,,,7,,7,,8,,
1-7[12:1],,,,4-2-6[8:2],,,,,,5,,5,,4,,
4-6[12:1],,,,1V37[8:2],,,,,,8,,8,,1,,
1-7[12:1],,,,3-5-1[8:2],,,,,,8,,7,,6,,6-3[8:1],,,,1-6[8:1],,,,4-8[8:1],,,,2,,,,
1/7h[8:2],,2,,3,,4v6>2[8:2]/6,4,,,1,,8,,7,,6/1h[8:3],,5,,4,,3-7<4[8:2],3,,,1,,2,,3,,
3-8[8:1],,,,3/5-2[8:1],,,,5/7-4[8:1],,,,17,,,,
25,,3-5[12:1],4,2h[8:1],,3-1[12:1],,,,34,,7,8x,7,,
8/2h[8:2],,7,,6,,5v3<7[8:2]/3,5,,,8,,1,,2,,3/8h[8:3],,4,,5,,6-2>5[8:2],6,,,8,,7,,6,,
6-1[8:1],,,,6/4-7[8:1],,,,4/2-5[8:1],,,,82,,,,
47,,6-4[12:1],5,7h[8:1],,6,,8,2x,7,,3,4,2,,
E4/1h[8:2],,,,,,,,E5/2h[8:2],,,,,,,,E6/3h[8:2],,,,,,,,E7/4h[8:1],,,,
3,,2,,1h[8:4]/E8,,,,,,,,E1,,,,,,
2h[8:2]/8,,,,1,,34,,56,,7-5-8-4[16:5]/8,,,,
3-1[12:1],,4,,3b,,,,5-7[12:1],,1-5-2[8:2],,5,,1-6[8:1],,,,1,,2,,
1,2,3/8w4[8:1],,,,8b,,
,,,,
4-2[12:1],,7-5[12:1],,4-8-3[8:2],,7,,4-7[8:1],,,,4-1[8:1],,
3,,4,,5,,4,5,6/2h[8:2],,,,
8,7,6,5,E2,E3,E4,E5,
8b-6-1-5[16:5],,,,4,,3,,2,,2h[8:2],,
8-3[8:1],7,6h[8:1],,8-4-7[8:
2],,7,,8,,1,2,3-1[8:1]*-7[8:1],,,,3b,,,,
2b/8b,,7-4[8:1],1,6,,1b/7b,,,,3-7[8:1],4,2,,1b/3b,,1,,1s5[16:3],,,,
5,,6,,7,,8-4[8:1]/5>2[8:1],,,,85,,,
1hx[16:3],,,6h[8:1],,4-7-5[16:3],5,,,3/4,,2,,1h[8:1],,
8-3[8:1],2,,,7/8,,6-1[8:1],4,,,56,,,,
2h[8:1]/8,,1-6[8:1],3,,,41,,5-2-4[16:3],7,,,56,,7,,8h[8:1],,
1-5[8:1],7,,,13,,4-2-5[16:3],6,,,4,,7,,
1,,8,,7,,6v1<6[16:5],,,,E2,,E3,,E4,,
5,,4,,3,,2v5>2[16:5],,,,E5,,E6,,E7,,
7,,6,,5,,4-2-5-7[8:3],,,,E1,,E2,,E3,,4qq8[8:3],,,,,,8<1[8:3],,8,,,,,,,,
5,,6,,7,,8>2-6[16:4],,,,E5,,E4,,E3,,
1,,2,,3,,4>2-6[16:4],,,,E6,,E7,,E8,,
1,,8,,7,,6-2>5[16:5],,,,E5,,E4,,E3,,
1-6[8:1],,,,1/3-8[8:1],,,,5-2[8:1]/3,,,,5/7p6>6[8:10],,,,17,,,,,,,,,,,,,,,,
3,,,2,,,1pp6[8:4],,1,,,,,,,,
8h[8:3],,,,,,5,,4/7pp4[8:4],,,,,,,,4,,,3,,,2,,2h[8:4],,,,,,,,
4h[8:2],,,,3-5[12:1],,,,6-8[12:1],,,,4-2[12:1],,,,7,,6h[16:1],,,,5,,5pp1[8:4],,,,
2,,,3h[16:1],,,,,,,4,,4-2-6-1[8:4],,,,,,,,
7,,,6,,,5,,5h[8:2],,2,,3,3,4-8[8:14],,1h[8:3],,,,,,,,
2h[8:3],,,,,,,,3h[8:3],,,,,,,,4h[8:3]
,,,,,,,,
5/7h[8:7],,,,,,,,6h[325:1],,,,,,1h[8:2],,,,8,,57,,24,,
3-1-4-8[16:5]/6,,,,
7-5[12:1],,6,,7b,,,,1-3[12:1],,5-1-6[8:2],,1,,5-2[8:1],,,,5,,6,,
5,6,3/7-2[8:1]*-4[8:1],,,,7b,,
,,,,
2-4[12:1],,5-7[12:1],,2-6-3[8:2],,5,,2-7[8:1],,1,,2-5[8:1],,
3,,2,,1,,8,7,2/6h[8:2],,,,
1,2,3,4,7,6,5,4,
1b-3-8-4[16:5],,,,5,,6,,7,,7h[8:2],,
1-6[8:1],2,3h[8:1],,1-5-2[8:
2],,2,,1,,8,7,6-8[8:1]*-2[8:1],,,,6b,,,,
7b/1b,,2-5[8:1],8,3,,8b/2b,,,,6-2[8:1],5,7,,8b/6b,,8,,8-2-6[16:3],,,,
82,,1bx,,2,3,4-1[8:1]/7-5[8:1],,,,7b/4b,,,,
2/8-6[12:1],3,4-8-3[16:4],,8,,4-7[16:2],,5,,4-2[12:1],,3,,4,,
7-5-1-3[16:4],6,5h[8:1],,7,,,,,,
7,,8h[8:1],,1V74[16:3],2,3h[8:1],,1-3[12:1],,2,,1,,
1-4[8:1],8,7h[8:1],,1-6[16:2],,8,,2,,1h[16:5],,
7,6,5,4,2,3,4,5,8b-2-6-4[8:2],,,,
4,,3,,2,,2h[8:2],,8V25[16:3],7,6h[8:1],,8-4[8:1],,7,,8,,
1,2,3-1[12:1]/7-4[12:1],,,,3b/7b,,,,
5b/7b,,3-7[16:2],5,2,,1bh[16:4]/3b,,,,8V25[16:3],1,6,,5b/8b,,7,,
7-4[8:1],,,,17,,8,,1,2,3-1[12:1]/7-3[12:1],,,,7b/3b,,,8hx[16:3],,,
6h[16:2],,4-7-5[16:3],5,3h[8:1],,4-2[12:1],,3,,4,,
8,1x,7h[8:2],,4,,3-1[12:1]*-5[12:1],4,2,,3,,,,
3h[8:1]/8,,5-3[12:1],4,6h[8:1],,5,,
1-5-3[16:3],2x,8h[8:1],,1,,7,,25,,6,4,7-3-6-4[8:2],,4,,,3,,,2h[8:2],,,,
8,,7,5,6h[8:1],,4h[8:1],,6-2-4[16:3],5,7h[8:1],,
6-8[12:1],,7,,6,,2,1x,3h[8:2],,8,,7-3[12:1]*-5[12:1],1,6,,7,,,,
6h[8:1]/1,,4-6[12:1],5,3h[8:1],,4,,
2-6-8[16:3],1x,3h[8:1],,2,,3,,4,,6-4[12:1],4,8h[8:1],,6,,1V38[16:3],3,7h[8:2],,1,,,,
