&title=Looping the Rooms
&artist=ループザルーム feat. 初音ミク
&first=0.08
&des=HaySad
&lv_5=13+
&inote_5=(162)
{4}
,,,,,
{8}
,,,,
{4}
,
{8}
7h[4:1]/1x,2,1>4[8:1],6,1x/7-3[8:1],,7/1-5[8:1],,1/7-3[8:1],,2-6[8:1]/7x,,8-4[8:1]/2,,8b,,
{8}
1-5[8:1],2,1,8x,8-4[8:1],7,8b,,
{8}
2-7[8:1],2,6-3[8:1],6,6b-4[8:1],,6b/B2/A2,,
{8}
1>4[8:1],2,1x/8<5[8:1],7,8x/1>4[8:1],2,1x/8-4[8:1],7,8x/1-5[8:1],1,8-6[8:1],8,1>4[6:1],1,1bx,
{16}
8,7,6-3[8:1],,6,,2-7[8:1],,2,,6-3[8:1],,6,,2-7[8:1],,2,,2/6,,5,,5h[4:1],,4,,3,,6,,6/1,,1,,
{8}
8b/2b,,1,1h[4:1],7,7,3-5[8:1],5-7[8:1],3bx/7-1-3-5[2:1],,,5,6,7,8w4[8:1],8,8,,
{8}
,7/1h[4:1],6,5,1>5[8:1]/5<1[8:1],,5p1[8:1]/1p5[8:1],,1x/5x,,2h[8:1],6h[8:1],3h[8:1],7h[8:1],
{8}
4hb[2:1],,7,6,5h[4:1],
{16}
1,1,
{8}
,2,3/7,6,4/5,3,2/6,3,3-6[8:1]/7,7,3x,,7,7h[8:1]/2,2h[4:1],4,5,6,8>3[8:1]/7h[4:1],,8-4b[8:1],,8b/1,,E3/B2/E2/A2,,
{8}
6h[4:1],E2/B2,,7,7h[4:1],E4,B3,5,5h[4:1],B1,B2/E3,7,7h[4:1],B4,B3,8,8h[4:1],A3,D4,6,6h[4:1],B1,B2,5x,5h[4:1],A4,E4,6,6h[4:1],
{16}
A3,E3,E2,,
{8}
7,6/E1,6h[4:1],E2,,7/B2,,8/E4,,7,E5,2,B6,3,A7,5,E2,3,B6,7,B2/E2,8/E4/B3,,1-4b[8:1]/B6/E6,,1b/A5/E5/B5,,,,,,,,
{4}
1>5[4:1],5<1[4:1],1-3-5[4:1],5-7-1[4:1],1>5[6:1],
{16}
5,6,7,8,1b/E6,,C,,
{8}
8-3[8:1],8,8-5[8:1]/1,,8-3[8:1]/7,,8-5[8:1]/1,,8-3[8:1]/7,,8/1<6[8:1],,1>4[8:1]/5,,1-6[8:1]/5,,1,7x,7x-4[8:1],2x,2x-5[8:1],6x,6x-1[8:1],3x,3xb,,2/6,2,7-1[8:1]/3-5[8:1],,3-1[8:1]/7-5[8:1],,3/7,,3-5[8:1]/7-1[8:1],3/7,3-1[8:1]/7-5[8:1],,3-7[8:1]/7-3[8:1],,3bx<6[8:1]/7xb>2[8:1],,3bx/7bx,,
{8}
1h[8:1],5h[8:1],8h[8:1],4,3/7b,,
{8}
4-1[8:1]/6,5,5-8[8:1]/4,,5/4-2[8:1],,4/5-7[8:1],,4-1[8:1]/5,,4-8[8:1]/5,,5-1[8:1]/4,,4/5,4,3-6[8:1],3,7-2[8:1],7,3-6[8:1],3,7-2[8:1],7,3-6[8:1],3,7-2[8:1],7,B6/E6,,B3/E3,,
{8}
2>5[8:1],2,8<5[8:1],8,2-5[8:1],2,8-5[8:1],8,2>5[8:1],2,8<5[8:1],8,2,2,1h[4:1],8,
{8}
7-4[8:1],8,7,1,2-5[8:1],3,2/8,,7/2,,
{4}
3/C,C/6,4/5,
{8}
4b/5b>5b[1:3],,,,,,,,,,
{8}
E2,B1,B2,A2,E3,B3,A3,,,1,1,1,2,2,3h[2:1],,E6,B5,B6,A6,E7,B7,A7/1b>1b[1:3],,,,,,,,,,E4,B4,B3,A3,E3,B2,A2,,,,,,,,,,,,
{8}
E2,B2,B3,E4,
{8}
6h[4:1],4,1,3h[4:1],8,4,6h[4:1],1,5,3h[4:1],7,4,
{16}
6h[4:1],,1,1,,,
{8}
6,3-8[8:1],4/6,3/5-1[8:1],5,5,4,4-8[8:1],5,6/4,6,7/1>4[8:1],,
{16}
8/1,7,6,5,B4,,,,
{8}
3h[4:1]/6h[8:1],,6,6,7-4[8:1]/3,8,7/2-5[8:1],1,2/7-4[8:1],8,7/2,1,
{16}
2h[4:1]/1,8,7,6,5,,,,
{8}
6h[4:1],4,1,3h[4:1],8,4,6h[4:1],3,3bh[1:1],,,,,,,,
{4}
8b<4[4:1],4>8[4:1],8-6-4[4:1],4-2-8[4:1],8<4[6:1],
{8}
3,2,1h[8:1],B5,
{8}
8-3[8:1]/B6,,8-5[8:1]/1,,8-3[8:1]/7,,8-5[8:1]/1,,8-3[8:1]/7,,8/1<6[8:1],,1>4[8:1]/5,,1-6[8:1]/5,,1,7x,7x-4[8:1],2x,2x-5[8:1],6x,6x-1[8:1],3x,3xb,,2/6,2,7-1[8:1]/3-5[8:1],,3-1[8:1]/7-5[8:1],,3/7,,3-5[8:1]/7-1[8:1],3/7,3-1[8:1]/7-5[8:1],,3-7[8:1]/7-3[8:1],,3bx<6[8:1]/7xb>2[8:1],,3bx/7bx,,
{8}
1h[8:1],5h[8:1],8h[8:1],4,2/7b,,
{8}
5h[4:1],3,3,2/4,3h[8:1],6,7-4[7:1]/2,4-7[8:1],
{16}
7/1,2,3,,3h[4:1],,8,,6b,,3,3,5b-1[8:1],,3,3,5bx,,,,
{16}
8,2,8,2,
{8}
8-4[8:1],7,8/2-6[8:1],3,2/7-3[8:1],8,7,
{16}
1,1,
{8}
8bw4b[8:1],1/7,8,,
{8}
2,3-7[8:1]/5,2,3/5-1[8:1],6,5,
{16}
2-4[8:1],,2,,
{8}
2-5[8:1]/6-1[8:1],7,6-2[8:1],,6-1[8:1]/3h[4:1],,6b>7b[1:1],,6bx,,
{4}
,,
{8}
,,4h[2:1],,,,
{16}
,,,6b,
{32}
4b,,,,,,,,
{8}
1>4[8:1],2,1x/8<5[8:1],7,8x/1>4[8:1],2,1x/8-4[8:1],7,8x/1-5[8:1],1,8-6[8:1],8,1>4[6:1],1,1bx/7,,
{8}
1<6[8:1],8,1x/2>5[8:1],3,2x/1<6[8:1],8,1x/2-6[8:1],3,2x/1-5[8:1],1,2-4[8:1],2,1,1,
{16}
1bx/5x,4,3,2,
{8}
6hx[4:1],4,1,3h[4:1],8,4,6h[4:1],1,5,3h[4:1],7,4,5hx[4:1],3,8,2h[4:1],7,3,5h[4:1],8,4,2h[4:1],6,4,4hx[4:1],2,2,1h[4:1],6,6,4h[4:1],1,
{8}
1>4[8:1],6,1x/7-3[8:1],,7/1-5[8:1],,1/7-3[8:1],,2-6[8:1]/7x,,8-4[8:1]/2,,8b,,
{8}
1-5[8:1],2,1,8x,8-4[8:1],7,8b,,3,2,1/5,2/6,3/7,4/8,5,6h[16:1],7,8,1h[2:1]/5,6,7,8,8-4[8:1],7/2,8/1-5[8:1],2,1,,7/3,2/6,1/8,,3,7,1h[1:1],,5,6,8,7,7,8,8b<5b[8:1],,3b-8b[8:1]/8b,,3b/6bx,E
